Ссылка на приватное зеркало всего за 1$. Внимание количество ограничено!!!

iTunes

iTunes

iTunes

1

iTunes

iTunes

iTunes

iTunes

iTunes

30
pack

$ от Little Big

ВАЖНО

!!Акция!!

Alien_RageХит недели

RePack

Resident Evil 21

ИГРА 18+

pack

RePack

jed

!!Акция!!

Alien_Rage

RePack

fifa19

RePack

Assassins Creed: Odyssey

RePack

NEED FOR SPEED™ PAYBACK

4 сезон

9 сезон

Бесстыжие 9 сезон

Все сериалы

все сериалы на PB.wtf

RePack

FAR CRY 5
  

Сквозь снег / Snowpiercer / Сезон: 1 / Серии: 1-7 из 10 (Джеймс Хоуз, Сэм Миллер, Хелен Шейвер) [2020, Фантастика, боевик, триллер, драма, WEB-DL 1080p] MVO [NewStudio] piratbit.org

Сквозь снег через торрент piratbit.org

Качают: 3 [ 0 KB/s ]
Размер: 34.62 GB | Добавлен: 1 ч. 52 мин. назад | Торрент скачан:0 раз
Скачать  

21-05-2020 19:26 Сквозь снег Скачать торрент  

Сквозь снег | Snowpiercer
«***»
Год выпуска: 2020
Страна: США
Студия: CJ Entertainment, Studio T, Tomorrow Studios
Жанр: Фантастика, боевик, триллер, драма
Продолжительность: ~ 00:53:00
Перевод: Профессиональный (многоголосый) | NewStudio
Субтитры: Русские (Forced, Full |«Netflix»|, английские (Full, SDH)

Режиссер: Джеймс Хоуз, Сэм Миллер, Хелен Шейвер

rating


В ролях: Дженнифер Коннелли, Давид Диггс, Мики Самнер, Шейла Ванд, Лена Холл, Элисон Райт, Иддо Голдберг, Аарон Гленнэйн, Карин Коновал, Анналиса Бассо и др.

Описание: Мир претерпел техногенную катастрофу, которая привела к новому ледниковому периоду. По трансевразийской магистрали мчится гигантский поезд, заполненный выжившими. В поезде царит строгая классовая иерархия: от правящей элиты в первых вагонах до угнетённых в хвосте.

Качество: WEB-DL 1080p
Формат: MKV

Видео: 1920x1080 (16:9), 23.976 fps, ~ 15, 4 Mbps
Аудио №1: AC3, 48,0 kHz, 6 ch, 384 kbps | NewStudio
Аудио №2: AC3, 48,0 kHz, 6 ch, 640 kbps | Original
Аудио №3: EAC3+Atmos, 48,0 kHz, 6 ch, 768 kbps | Original
скриншот  скриншот  скриншот  скриншот  

Complete name : D:Snowpiercer_(s01)_NewStudio_1080pSnowpiercer.2020.S01E01.First.the.Weather.Changed.1080p.NF.WEBRip.DDP5.1.x264-AJP69_EniaHD.mkv
Format : Matroska
Format version : Version 4
File size : 6.32 GiB
Duration : 52 min 43 s
Overall bit rate : 17.2 Mb/s
Encoded date : UTC 2020-05-26 14:54:10
Writing application : mkvmerge v31.0.0 ('Dolores In A Shoestand') 64-bit
Writing library : libebml v1.3.6 + libmatroska v1.4.9

Video
ID : 1
Format : AVC
Format/Info : Advanced Video Codec
Format profile : High@L4.1
Format settings : CABAC / 4 Ref Frames
Format settings, CABAC : Yes
Format settings, Reference : 4 frames
Codec ID : V_MPEG4/ISO/AVC
Duration : 52 min 43 s
Bit rate : 15.4 Mb/s
Width : 1 920 pixels
Height : 1 080 pixels
Display aspect ratio : 16:9
Frame rate mode : Constant
Frame rate : 23.976 (24000/1001) FPS
Color space : YUV
Chroma subsampling : 4:2:0
Bit depth : 8 bits
Scan type : Progressive
Bits/(Pixel*Frame) : 0.309
Stream size : 5.66 GiB (90%)
Title : Release by EniaHD
Writing library : x264 core 160 r3000 33f9e14
Encoding settings : cabac=1 / ref=4 / deblock=1:-3:-3 / analyse=0x3:0x133 / me=umh / subme=10 / psy=1 / psy_rd=1.00:0.00 / mixed_ref=1 / me_range=48 / chroma_me=1 / trellis=2 / 8x8dct=1 / cqm=0 / deadzone=21,11 / fast_pskip=0 / chroma_qp_offset=-2 / threads=34 / lookahead_threads=5 / sliced_threads=0 / nr=0 / decimate=0 / interlaced=0 / bluray_compat=0 / constrained_intra=0 / bframes=8 / b_pyramid=2 / b_adapt=2 / b_bias=0 / direct=3 / weightb=1 / open_gop=0 / weightp=2 / keyint=250 / keyint_min=23 / scenecut=40 / intra_refresh=0 / rc=crf / mbtree=0 / crf=17.0 / qcomp=0.60 / qpmin=0 / qpmax=69 / qpstep=4 / ip_ratio=1.30 / pb_ratio=1.20 / aq=3:0.80
Default : Yes
Forced : No

Audio #1
ID : 2
Format : AC-3
Format/Info : Audio Coding 3
Commercial name : Dolby Digital
Codec ID : A_AC3
Duration : 52 min 43 s
Bit rate mode : Constant
Bit rate : 384 kb/s
Channel(s) : 6 channels
Channel layout : L R C LFE Ls Rs
Sampling rate : 48.0 kHz
Frame rate : 31.250 FPS (1536 SPF)
Compression mode : Lossy
Stream size : 145 MiB (2%)
Title : NewStudio
Language : Russian
Service kind : Complete Main
Default : Yes
Forced : No

Audio #2
ID : 3
Format : AC-3
Format/Info : Audio Coding 3
Commercial name : Dolby Digital
Codec ID : A_AC3
Duration : 52 min 43 s
Bit rate mode : Constant
Bit rate : 640 kb/s
Channel(s) : 6 channels
Channel layout : L R C LFE Ls Rs
Sampling rate : 48.0 kHz
Frame rate : 31.250 FPS (1536 SPF)
Compression mode : Lossy
Stream size : 241 MiB (4%)
Language : English
Service kind : Complete Main
Default : No
Forced : No

Audio #3
ID : 4
Format : E-AC-3 JOC
Format/Info : Enhanced AC-3 with Joint Object Coding
Commercial name : Dolby Digital Plus with Dolby Atmos
Codec ID : A_EAC3
Duration : 52 min 43 s
Bit rate mode : Constant
Bit rate : 768 kb/s
Channel(s) : 6 channels
Channel layout : L R C LFE Ls Rs
Sampling rate : 48.0 kHz
Frame rate : 31.250 FPS (1536 SPF)
Compression mode : Lossy
Stream size : 290 MiB (4%)
Language : English
Service kind : Complete Main
Default : No
Forced : No
Complexity index : 16
Number of dynamic objects : 15
Bed channel count : 1 channel
Bed channel configuration : LFE

Text #1
ID : 5
Format : UTF-8
Codec ID : S_TEXT/UTF8
Codec ID/Info : UTF-8 Plain Text
Duration : 49 min 4 s
Bit rate : 0 b/s
Count of elements : 9
Stream size : 264 Bytes (0%)
Title : Forced
Language : Russian
Default : Yes
Forced : No

Text #2
ID : 6
Format : UTF-8
Codec ID : S_TEXT/UTF8
Codec ID/Info : UTF-8 Plain Text
Duration : 50 min 35 s
Bit rate : 87 b/s
Count of elements : 619
Stream size : 32.4 KiB (0%)
Title : Full |NF|
Language : Russian
Default : No
Forced : No

Text #3
ID : 7
Format : UTF-8
Codec ID : S_TEXT/UTF8
Codec ID/Info : UTF-8 Plain Text
Duration : 50 min 45 s
Bit rate : 58 b/s
Count of elements : 621
Stream size : 21.8 KiB (0%)
Title : Full
Language : English
Default : No
Forced : No

Text #4
ID : 8
Format : UTF-8
Codec ID : S_TEXT/UTF8
Codec ID/Info : UTF-8 Plain Text
Duration : 50 min 50 s
Bit rate : 68 b/s
Count of elements : 732
Stream size : 25.4 KiB (0%)
Title : SDH
Language : English
Default : No
Forced : No

Внимание! Раздача ведётся путём добавления новых серий; при каждом добавлении создаётся новый торрент.
Чтобы начать докачку новой серии, пользователям необходимо сделать следующее:
1. Остановить скачивание;
2. Удалить старый торрент у себя из клиента (старые серии удалять не надо);
3. Скачать новый торрент и запустить его у себя в клиенте вместо старого, при этом указать клиенту путь в старую папку куда и должно происходить скачивание новых серий. Ваш клиент при этом должен произвести хеширование (проверку) старой папки и будет докачивать только те серии, которых у вас ещё нет. Старые серии при этом не удаляются, а продолжают раздаваться! Eсли вы уже удалили старые серии, то предотвратить повторную закачку старых серий можно, отжав галочку в соответствующих местах при запуске нового торрента.
piratbit.org



Скачать Сквозь снег через торрент https://i6.imageban.ru/out/2020/05/20/c3029caa6ad6866aa48370c60f025fcd.png Скачать фильм Сквозь снег через торрент бесплантно в хорошем качестве Описание: Мир претерпел техногенную катастрофу, которая привела к новому ледниковому периоду. По трансевразийской магистрали мчится ... 10 10 5
Торрент: Зарегистрирован [2020-07-04 16:12] · скачан: 0 раз
Статус: √ проверено
Размер: 34.62 GB
Как cкачать? Как скачать Сквозь снег через торрент | qTorrent

% Раздел Тема Автор DL S | L
Зарубежные сериалы [ 12.12 GB ] Сквозь снег / Snowpiercer / Сезон: 1 / Серии: 1-7 из 10 [2020 WEB-DL 1080p] DUB [Пифагор / Netflix] bober100 Скачать
14 | 7
Зарубежные сериалы [ 21.27 GB ] Сквозь снег / Snowpiercer / Сезон: 1 / Серии: 1-7 из 10 [2020 WEBRip 1080p] [DVO] killermax2013 Скачать
1 | 0
Зарубежные сериалы [ 5.75 GB ] Сквозь снег / Snowpiercer / Сезон: 1 / Серии: 1-7 из 10 [2020 ] - [Пифагор / Netflix] Twi7ter Скачать
124 | 198
Зарубежные сериалы [ 35.51 GB ] Сквозь снег / Snowpiercer / Сезон: 1 / Серии: 1-7 из 10 [2020 WEB-DL 1080p] + [MVO] killermax2013 Скачать
1 | 7
Зарубежные сериалы [ 56.39 GB ] Сквозь снег / Snowpiercer / Сезон: 1 / Серии: 1-7 из 10 [2020 UHD WEB-DL 2160p ] DUB [Пифагор / Netflix] +MVO [LostFilm] bober100 Скачать
1 | 0
Зарубежные сериалы [ 4.31 GB ] Сквозь снег / Snowpiercer / Сезон: 1 / Серии: 1-7 из 10 [2020 WEB-DLRip] MVO [TVShows] bober100 Скачать
1 | 0
Зарубежные сериалы [ 8.67 GB ] Сквозь снег / Snowpiercer / Сезон: 1 / Серии: 1-7 из 10 [2020 WEB-DL 720p] MVO [TVShows] bober100 Скачать
2 | 0

28-11-2019 20:33  

Отключить всю рекламу на сайте

    Дорогой пользователь! Огромная просьба, поблагодарите релизера, оцените раздачу и оставьте свои комментарий, если Вы скачали Сквозь снег через торрент бесплатно! Внесите свою лепту в развитие PiratBit!
    Комментировать посты могут только пользователи прошедшие не сложную регистрацию
    Показать сообщения:    

    Сквозь снег через торрент
    Скачать бесплатно Сквозь снег
    Сквозь снег скачать торрент
    Сквозь снег смотреть онлайн
    Cкачать фильм Сквозь снег бесплатно
    Сквозь снег скачать торрент в хорошем качестве
    Сквозь снег смотреть онлайн бесплатно в хорошем качестве


    Вы не можете начинать темы
    Вы не можете отвечать на сообщения
    Вы не можете редактировать свои сообщения
    Вы не можете удалять свои сообщения
    Вы не можете голосовать в опросах
    Вы не можете прикреплять файлы к сообщениям
    Вы можете скачивать файлы