Достать ножи: Стеклянная луковица

MVO

Добыча

Дубляж

Уэнсдэй

1 сезон

Тор

Дубляж

13 клиническая

1 сезон

Жестокая ночь

MVO

Одни из нас

1 сезон

Deluxe

pack

Рекомендуем

30

Пиратка

ВАЖНО

ВАЖНО

Ghostwire

Пиратка

jed

RePack

nioh2

RePack

RDR2

RePack

NEED FOR SPEED™ PAYBACK

RePack

скачать торрент

Кинопоиск HD

Острые козырьки 6 сезон

6 сезон

FAR CRY 6

RePack

скачать торрент

Лицензия

скачать торрент

MVO

1

1 сезон

скачать торрент

1 сезон

скачать торрент

Лицензия

  

Рэмбо: Последняя кровь / Rambo: Last Blood (Адриан Грюнберг) [2019, боевик, триллер, приключения, вестерн, UHD BDRemux 2160p, (Dolby Vision TV)] [Расширенная версия] Дубляж [Лицензия]

Рэмбо: Последняя кровь через торрент piratbit.org

Размер: 46.43 GB | Добавлен: 2 года 8 мес. назад | Торрент скачан:13 раз
Смотреть онлайн | Скачать | Поддержите нас   

21-05-2020 19:57 Рэмбо: Последняя кровь Скачать торрент  

Рэмбо: Последняя кровь | Rambo: Last Blood
Год выпуска: 2019
Страна: США
Студия: Balboa Productions, Campbell Grobman Films, Dadi Film Group
Жанр: боевик, триллер, приключения, вестерн
Продолжительность: 01:41:04
Перевод: Дублированный | Лицензия
Субтитры: отсутствуют

Режиссер: Адриан Грюнберг

rating

В ролях: Сильвестр Сталлоне, Пас Вега, Ивет Монреаль, Луис Мэндилор, Оскар Хаэнада, Шила Шах, Серхио Перис-Менчета, Джессика Мэдсен, Хоакин Косио, Адриана Барраса

Описание: Он хранил секреты всю жизнь, но пришло время взглянуть в глаза прошлому. В последний раз собраться и стать безжалостной машиной для убийства. Рэмбо снова встанет на смертельно опасный путь - путь мести, который ему придется пройти до конца.

Качество: UHD BDRemux 2160p | Dolby Vision TV | Расширенная версия
Формат: MP4

Видео: 3840x2160 at 24.000 fps, MPEG-H HEVC HDR, Dolby Vision Video, 52000 kbps avg
Аудио: 48 kHz, AC3, 5.1, 640 Kbps | Лицензия | RUS |
Данный вид релизов (контейнер MP4) предназначен для встроенного в ТВ (соответственно, с поддержкой DV) плеер.
Т.Е. Можно использовать как USB flash/HDD, так и DLNA / Plex - подобные сервисы/программы. дополнительный-внешний плеер не обязателен.

Внимание!
На моделях LG 2016 возможны сюрпризы "через раз", 2017-2018 должно идти без сюрпризов )
скриншот  скриншот  скриншот  скриншот  скриншот  

General
Complete name : D:Video222Rambo.Last.Blood.2019.EXTENDED.BDREMUX.2160p.HDR.DV_TV.seleZenRambo.Last.Blood.2019.EXTENDED.BDREMUX.2160p.HDR.DV_TV.seleZen.mp4
Format : MPEG-4
Format profile : Base Media / Version 2
Codec ID : mp42 (mp42/dby1/isom)
File size : 46.4 GiB
Duration : 1 h 41 min
Overall bit rate : 65.7 Mb/s
Encoded date : UTC 2020-05-21 18:34:31
Tagged date : UTC 2020-05-21 18:34:31

Video #1
ID : 1
Format : HEVC
Format/Info : High Efficiency Video Coding
Format profile : Main 10@L5.1@High
HDR format : SMPTE ST 2086, HDR10 compatible
Codec ID : hev1
Codec ID/Info : High Efficiency Video Coding
Duration : 1 h 41 min
Bit rate : 52.0 Mb/s
Width : 3 840 pixels
Height : 2 160 pixels
Display aspect ratio : 16:9
Frame rate mode : Constant
Frame rate : 24.000 FPS
Color space : YUV
Chroma subsampling : 4:2:0 (Type 2)
Bit depth : 10 bits
Bits/(Pixel*Frame) : 0.261
Stream size : 36.8 GiB (79%)
Default : No
Encoded date : UTC 2020-05-21 18:34:31
Tagged date : UTC 2020-05-21 18:34:31
Color range : Limited
Color primaries : BT.2020
Transfer characteristics : PQ
Matrix coefficients : BT.2020 non-constant
Mastering display color pri : Display P3
Mastering display luminance : min: 0.0050 cd/m2, max: 4000 cd/m2
Maximum Content Light Level : 2808 cd/m2
Maximum Frame-Average Light : 703 cd/m2
Codec configuration box : hvcC

Video #2
ID : 2
Format : HEVC
Format/Info : High Efficiency Video Coding
Format profile : Main 10@L5.1@High
HDR format : Dolby Vision, Version 1.0, dvhe.07.06, EL+RPU, Blu-ray compatible / SMPTE ST 2086, HDR10 compatible
Codec ID : dvhe
Codec ID/Info : High Efficiency Video Coding with Dolby Vision
Duration : 1 h 41 min
Bit rate : 13.0 Mb/s
Width : 1 920 pixels
Height : 1 080 pixels
Display aspect ratio : 16:9
Frame rate mode : Constant
Frame rate : 24.000 FPS
Color space : YUV
Chroma subsampling : 4:2:0 (Type 2)
Bit depth : 10 bits
Bits/(Pixel*Frame) : 0.262
Stream size : 9.22 GiB (20%)
Default : No
Encoded date : UTC 2020-05-21 18:34:31
Tagged date : UTC 2020-05-21 18:34:31
Color range : Limited
Color primaries : BT.2020
Transfer characteristics : PQ
Matrix coefficients : BT.2020 non-constant
Mastering display color pri : Display P3
Mastering display luminance : min: 0.0050 cd/m2, max: 4000 cd/m2
Codec configuration box : hvcC+dvcC

Audio
ID : 3
Format : AC-3
Format/Info : Audio Coding 3
Commercial name : Dolby Digital
Codec ID : ac-3
Duration : 1 h 40 min
Bit rate mode : Constant
Bit rate : 640 kb/s
Channel(s) : 6 channels
Channel layout : L R C LFE Ls Rs
Sampling rate : 48.0 kHz
Frame rate : 31.250 FPS (1536 SPF)
Compression mode : Lossy
Stream size : 461 MiB (1%)
Language : Russian
Service kind : Complete Main
Default : No
Encoded date : UTC 2020-05-21 18:34:31
Tagged date : UTC 2020-05-21 18:34:31




Скачать Рэмбо: Последняя кровь через торрент https://img16.lostpic.net/2020/01/20/36faa6e1d86fa6a2deaf9c2067cd6f3a.jpg Скачать, смотреть онлайн Рэмбо: Последняя кровь бесплантно в хорошем качестве Описание: Он хранил секреты всю жизнь, но пришло время взглянуть в глаза прошлому. В последний раз собраться и стать безжалостной машиной ... 9 10 4
Торрент: Зарегистрирован [2020-05-21 19:57] · скачан: 13 раз
Статус: √ проверено
Размер: 46.43 GB
Как cкачать? Как скачать Рэмбо: Последняя кровь через торрент | UTorrent

% Раздел Тема Автор DL S | L
Фильмы 2019-2020 [DVDrip, WEB-DLRip, HDrip] (DUB, MVO) [ 1.46 GB ] Рэмбо: Последняя кровь / Rambo: Last Blood | Лицензия | BDRip Twi7ter Скачать
1 | 1
Фильмы (HD 720p, 1080p) (48-60 fps) [ 3.31 GB ] Рэмбо: Последняя кровь / Rambo: Last Blood | Дубляж | 720p / 60 FPS slaventi-69 Скачать
1 | 0
Фильмы [HD 720p, 1080p] (Хороший звук DUB, MVO) [ 10.99 GB ] Рэмбо: Последняя кровь / Rambo: Last Blood | Лицензия | 1080p bober100 Скачать
1 | 0
Фильмы (Blu-ray, BD-Remux, HDDVD) [ 15.6 GB ] Рэмбо: Последняя кровь / Rambo: Last Blood | iTunes | BDRemux, (Расширенная версия Mr. Grab Скачать
1 | 0
Фильмы [HD 720p, 1080p] (Хороший звук DUB, MVO) [ 5.8 GB ] Рэмбо: Последняя кровь / Rambo: Last Blood | Лицензия | 720p bober100 Скачать
1 | 0
Ultra HD (UHD: 2K, 4K, 8K) [ 58.93 GB ] Рэмбо: Последняя кровь / Rambo: Last Blood | Лицензия | 2160p bober100 Скачать
1 | 0
Фильмы 2019-2020 [DVDrip, WEB-DLRip, HDrip] (DUB, MVO) [ 1.4 GB ] Рэмбо: Последняя кровь / Rambo: Last Blood | iTunes | HDRip-AVC Enigma2010 Скачать
3 | 0

28-11-2019 20:33  


Отключить вcю реклaмy на сайте, в т.ч. и в плеере онлайн просмотра!

    Дорогой пользователь! Огромная просьба, поблагодарите релизера, оцените раздачу и оставьте свои комментарий, если Вы скачали Рэмбо: Последняя кровь через торрент бесплатно!!
    Комментировать посты могут только пользователи прошедшие не сложную регистрацию
    Показать сообщения:    


    Рэмбо: Последняя кровь через торрент
    Скачать бесплатно Рэмбо: Последняя кровь
    Рэмбо: Последняя кровь скачать торрент
    Рэмбо: Последняя кровь смотреть онлайн
    Cкачать фильм Рэмбо: Последняя кровь бесплатно
    Рэмбо: Последняя кровь скачать торрент в хорошем качестве
    Рэмбо: Последняя кровь смотреть онлайн бесплатно в хорошем качестве
    Вы не можете начинать темы
    Вы не можете отвечать на сообщения
    Вы не можете редактировать свои сообщения
    Вы не можете удалять свои сообщения
    Вы не можете голосовать в опросах
    Вы не можете прикреплять файлы к сообщениям
    Вы можете скачивать файлы
    Рэмбо: Последняя кровь / Rambo: Last Blood [2019, боевик, триллер, приключения, вестерн, UHD BDRemux 2160p, ] [Расширенная версия] Дубляж [Лицензия] смотреть онлайн, скачать торрент picoco.icu