Ссылка на приватное зеркало нашего сайта всего за 1$. Внимание количество ограничено!!!

2 сезон

iTunes

iTunes

1

iTunes

iTunes

iTunes

WEBRip

iTunes

30
pack

Вам бонус

ВАЖНО

!!Акция!!

Alien_RageХит недели

RePack

Horizon Zero Dawn

ИГРА 18+

pack

RePack

jed

!!Акция!!

Alien_Rage

RePack

fifa19

RePack

Assassins Creed: Odyssey

RePack

NEED FOR SPEED™ PAYBACK

4 сезон

9 сезон

Бесстыжие 9 сезон

Все сериалы

все сериалы на PB.wtf

RePack

FAR CRY 5
  

Сотня / The 100 / Сезон: 7 / Серии: 1-13 из 16 (Дин Уайт, Эд Фрэйман, П.Дж. Пеше) [2020, фантастика, драма, детектив, WEB-DL 1080p] MVO [LostFilm] piratbit.org

Сотня через торрент piratbit.org

Раздают: 6 [ 613 KB/s ] Качают: 31 [ 15 MB/s ]
Размер: 37.66 GB | Добавлен: 11 д. назад | Торрент скачан:7 раз
Скачать  

25-05-2020 05:31 Сотня Скачать торрент  

Сотня | The 100
«Survival isn't who you are. It's who you become»
Название: Сотня
Оригинальное название: The 100
Год выпуска: 2020
Страна: США
Студия: Bonanza Productions, Alloy Entertainment, Warner Bros. Television
Жанр: фантастика, драма, детектив
Продолжительность: ~ 00:43:00 серия
Перевод: Профессиональный (многоголосый) | LostFilm
Субтитры: Английские

Режиссер: Дин Уайт, Джон Беринг, Милан Чейлов

rating

В ролях: Элиза Тейлор, Пейдж Турко, Томас МакДонелл, Боб Морли, Мари Авгеропулос, Девон Бостик, Линдси Морган, Рики Уиттл, Кристофер Ларкин, Исайя Вашингтон, Генри Иэн Кьюсик, Рэймонд Дж. Бэрри, Ричард Хэрмон, Джозеф Гатт, Ив Харлоу, Дичен Лакмэн, Адина Портер, Кинэн Трэйси, Джонни Витуорт, Алисия Дебнем Кери, Кендалл Кросс, Алекс Паунович, Сарван Бадеша, Джарод Джозеф и др.

Описание: Проснувшиеся после долгого крио-сна земляне обнаруживают, что прилетели к обитаемой планете Альфа, которая поначалу кажется райским местом, но после высадки оказывается не такой уж дружелюбной.

Качество: WEB-DL 1080p
Формат: MKV

Видео: 1920x1080 (16:9), 23.976 fps, ~ 9349 Kbps
Аудио №1: AC3, 48,0 kHz, 2 ch, 384 kbps | LostFilm
Аудио №2: E-AC3, 48,0 kHz, 6 ch, 640 kbps | Original
скриншот  скриншот  скриншот  скриншот  скриншот  

Общее
Уникальный идентификатор : 247272059093722726609207918564015128156 (0xBA06DDC5F5EA05B294BEB1B8BEF8BE5C)
Полное имя : C:\The.Hundred.S07E01.1080p.rus.LostFilm.mkv
Формат : Matroska
Версия формата : Version 4 / Version 2
Размер файла : 3,07 Гбайт
Продолжительность : 42 м. 18 с.
Общий поток : 10,4 Мбит/сек
Название фильма : The 100 07x01 (From the Ashes) - release by messafan for CasStudio
Дата кодирования : UTC 2020-05-24 07:46:48
Программа кодирования : mkvmerge v18.0.0 ('Apricity') 64-bit
Библиотека кодирования : libebml v1.3.5 + libmatroska v1.4.8

Видео
Идентификатор : 1
Формат : AVC
Формат/Информация : Advanced Video Codec
Профиль формата : High@L4
Настройки формата : CABAC / 4 Ref Frames
Параметр CABAC формата : Да
Параметр RefFrames формата : 4 кадра
Идентификатор кодека : V_MPEG4/ISO/AVC
Продолжительность : 42 м. 18 с.
Вид битрейта : Постоянный
Битрейт : 9349 Кбит/сек
Номинальный битрейт : 10000 Кбит/сек
Ширина : 1920 пикселей
Высота : 1080 пикселей
Соотношение сторон : 16:9
Режим частоты кадров : Постоянный
Частота кадров : 23,976 (24000/1001) кадра/сек
Цветовое пространство : YUV
Субдискретизация насыщенности : 4:2:0
Битовая глубина : 8 бит
Тип развёртки : Прогрессивная
Бит/(Пиксели*Кадры) : 0.188
Размер потока : 2,76 Гбайт (90%)
Язык : English
Default : Да
Forced : Нет
Цветовой диапазон : Limited
Основные цвета : BT.709
Характеристики трансфера : BT.709
Коэффициенты матрицы : BT.709

Аудио #1
Идентификатор : 2
Формат : AC-3
Формат/Информация : Audio Coding 3
Идентификатор кодека : A_AC3
Продолжительность : 42 м. 18 с.
Вид битрейта : Постоянный
Битрейт : 384 Кбит/сек
Каналы : 2 канала
Расположение каналов : Front: L R
Частота : 48,0 КГц
Частота кадров : 31,250 кадров/сек (1536 SPF)
Битовая глубина : 16 бит
Метод сжатия : С потерями
Размер потока : 116 Мбайт (4%)
Заголовок : LostFilm
Язык : Russian
ServiceKind/String : Complete Main
Default : Да
Forced : Нет

Аудио #2
Идентификатор : 3
Формат : E-AC-3
Формат/Информация : Enhanced Audio Coding 3
Идентификатор кодека : A_EAC3
Продолжительность : 42 м. 18 с.
Вид битрейта : Постоянный
Битрейт : 640 Кбит/сек
Каналы : 6 каналов
Расположение каналов : Front: L C R, Side: L R, LFE
Частота : 48,0 КГц
Частота кадров : 187,500 кадров/сек (256 SPF)
Метод сжатия : С потерями
Размер потока : 194 Мбайт (6%)
Язык : English
ServiceKind/String : Complete Main
Default : Нет
Forced : Нет

Текст #1
Идентификатор : 4
Формат : UTF-8
Идентификатор кодека : S_TEXT/UTF8
Идентификатор кодека/Информация : UTF-8 Plain Text
Продолжительность : 41 м. 15 с.
Битрейт : 62 бит/сек
ElementCount : 690
Размер потока : 18,7 Кбайт (0%)
Язык : English
Default : Нет
Forced : Нет

Текст #2
Идентификатор : 5
Формат : UTF-8
Идентификатор кодека : S_TEXT/UTF8
Идентификатор кодека/Информация : UTF-8 Plain Text
Продолжительность : 41 м. 17 с.
Битрейт : 64 бит/сек
ElementCount : 741
Размер потока : 19,6 Кбайт (0%)
Заголовок : SDH
Язык : English
Default : Нет
Forced : Нет

Когда раздача ведётся путём добавления новых серий, при каждом добавлении создётся новый торрент. Чтобы начать докачку новой серии, пользователям необходимо сделать следующее:
(1) остановить скачивание,
(2) удалить старый торрент у себя из клиента (старые серии удалять не надо),
(3) скачать новый торрент и запустить его у себя в клиенте вместо старого, при этом указать клиенту путь в старую папку, куда и должно происходить скачивание новых серий.
Ваш клиент при этом должен произвести хеширование (проверку) старой папки (если не производит сам - помогите ему сделать это), и будет докачивать только те серии, которых у вас ещё нет. Старые серии при этом не удаляются, а продолжают раздаваться!
Eсли вы уже удалили старые серии, то предотвратить повторную закачку старых серий можно, отжав галочку в соответсвующих местах при запуске нового торрента. По возможности, желательно не удалять старые серии как можно дольше, чтобы релизёр не столько продолжал раздавать старые серии, а смог сконцентрироваться на новых.

piratbit.org



Скачать Сотня через торрент https://i3.imageban.ru/out/2020/05/23/a4c912ce44007ec9a66876d7636f3983.png Скачать фильм Сотня через торрент бесплантно в хорошем качестве Описание: Проснувшиеся после долгого крио-сна земляне обнаруживают, что прилетели к обитаемой планете Альфа, которая поначалу кажется ... 8.2 10 5
Торрент: Зарегистрирован [2020-09-15 16:50] · скачан: 7 раз
Статус: √ проверено
Размер: 37.66 GB
Как cкачать? Как скачать Сотня через торрент | qTorrent

% Раздел Тема Автор DL S | L
Зарубежные сериалы [ 36.76 GB ] Сотня / The 100 / Сезон: 7 / Серии: 1-13 из 16 [2020 WEB-DL 1080p] MVO [Jaskier] bober100 Скачать
1 | 1
Зарубежные сериалы [ 18.53 GB ] Сотня / The 100 / Сезон: 7 / Серии: 1-13 из 16 [2020 WEB-DL 720p] MVO [Jaskier] bober100 Скачать
1 | 2
Зарубежные сериалы [ 6.32 GB ] Сотня / The 100 / Сезон: 7 / Серии: 1-13 из 16 [2020 WEB-DLRip] MVO [Jaskier] bober100 Скачать
1 | 0


Последний раз редактировалось: bober100 (2020-09-15 16:50), всего редактировалось 9 раз(а)

28-11-2019 20:33  

Отключить всю рекламу на сайте

25-05-2020 15:56 Сотня Скачать торрент  

Вот это нифига себе! ))piratbit.org



28-06-2020 06:11 Сотня Скачать торрент  

уже заезженный сериал.piratbit.org



    Дорогой пользователь! Огромная просьба, поблагодарите релизера, оцените раздачу и оставьте свои комментарий, если Вы скачали Сотня через торрент бесплатно! Внесите свою лепту в развитие PiratBit!
    Комментировать посты могут только пользователи прошедшие не сложную регистрацию
    Показать сообщения:    

    Сотня через торрент
    Скачать бесплатно Сотня
    Сотня скачать торрент
    Сотня смотреть онлайн
    Cкачать фильм Сотня бесплатно
    Сотня скачать торрент в хорошем качестве
    Сотня смотреть онлайн бесплатно в хорошем качестве


    Вы не можете начинать темы
    Вы не можете отвечать на сообщения
    Вы не можете редактировать свои сообщения
    Вы не можете удалять свои сообщения
    Вы не можете голосовать в опросах
    Вы не можете прикреплять файлы к сообщениям
    Вы можете скачивать файлы