Всегда рабочее зеркало просто перед .vidak.icu напиши любое слово или цифру, Пример http://fvo.vidak.icu

>

7.4

iTunes

7.4

2 сезон

9.4

1 сезон

1

7.4

2 сезон

7.2

iTunes

6.0

MVO

13

6.1

iTunes

8.3

Пиратка

30

ULTIMATE

pack

9.9

Лицензия

ВАЖНО

ИГРА 18+

pack

7.3

RePack

MK11

7.7

RePack

jed

7.8

RePack

fifa19

8.5

RePack

RDR2

RePack

NEED FOR SPEED™ PAYBACK

1 сезон

9 сезон

Бесстыжие 9 сезон

Все сериалы

все сериалы на PB.wtf

RePack

FAR CRY 5

Anonymous, добрый вечер, мы катастрофически не успеваем собрать деньги на оплату серверов, помогите нам пожалуйста 5,10,15р., для нас важна любая помощь . В качестве благодарности мы отключим Вам всю рекламу на сайте (укажите свой ник в строку Ваше имя)!

×
  
Magnet ссылка

Следом за жизнью / Жизнь после смерти / После жизни / After Life / Сезон: 2 / Серии: 1-6 из 6 (Рики Джервэйс) [2020, драма, комедия, WEB-DL 1080p] [MVO] (VSI) piratbit.org

Следом за жизнью через торрент piratbit.org

Размер: 6.75 GB | Добавлен: 6 д. назад | Торрент скачан:13 раз
Смотреть онлайн Следом за жизнью | Скачать    Ребята, помогите собрать деньги на оплату серверов!!!

26-05-2020 10:40 Следом за жизнью Скачать торрент  

Следом за жизнью / Жизнь после смерти / После жизни / After Life Год выхода: 2020
Страна
: Великобритания
Жанр: драма, комедия
Продолжительность: ~00:30:00
Перевод: Профессиональный (многоголосый закадровый) VSI Moscow по заказу Netflix
Режиссер: Рики Джервэйс

В ролях: Рики Джервэйс, Том Басден, Дэвид Брэдли, Рошин Конати, Керри Гадлимен, Эшли Дженсен, Пол Кэй, Дайан Морган, Тони Вэй, Джо Уилкинсон и др.

Описание: Тони был счастливым человеком, пока не пережил страшную потерю. Внезапная смерть жены изменила жизнь главного героя и его самого — от добродушного, участливого парня не осталось и следа. Тони решил наказать этот жестокий мир, отныне поступая только так, как хочется ему. Но его наплевательское отношение к себе и остальным не мешает окружающим пытаться помочь тому старому доброму Тони, которого они помнят.

rating

Качество: WEB-DL 1080p
Формат: MKV
Видео кодек: AVC
Аудио кодек: AC3, E-AC3
Видео: 1920x1080 at 25.000 fps, MPEG-4 AVC, ~5000 kbps avg
Аудио #1: Russian 48 kHz, E-AC3, 3/2 (L,C,R,l,r) + LFE ch, ~640 kbps avg |VSI Moscow|
Аудио #2: English 48 kHz, E-AC3, 3/2 (L,C,R,l,r) + LFE ch, ~640 kbps avg |Eng|
Субтитры: Russian (Forced, Full), English (SDH) и другие
General
Unique ID : 277695468513016442056812539487692111591 (0xD0EA33AAABD4F324D3E6B4E4DFFDBEE7)
Complete name : After.Life.S02E01.1080p.NF.WEB-DL.DDP5.1.x264-EniaHD.mkv
Format : Matroska
Format version : Version 4
File size : 1.14 GiB
Duration : 27 min 10 s
Overall bit rate mode : Variable
Overall bit rate : 6 012 kb/s
Movie name : After Life S02E01 - EniaHD
Encoded date : UTC 2020-04-24 08:43:08
Writing application : mkvmerge v45.0.0 ('Heaven in Pennies') 64-bit
Writing library : libebml v1.3.10 + libmatroska v1.5.2

Video
ID : 1
Format : AVC
Format/Info : Advanced Video Codec
Format profile : Main@L4
Format settings : CABAC / 3 Ref Frames
Format settings, CABAC : Yes
Format settings, Reference fra : 3 frames
Codec ID : V_MPEG4/ISO/AVC
Duration : 27 min 10 s
Bit rate mode : Variable
Bit rate : 4 870 kb/s
Maximum bit rate : 7 305 kb/s
Width : 1 920 pixels
Height : 1 080 pixels
Display aspect ratio : 16:9
Frame rate mode : Constant
Frame rate : 25.000 FPS
Color space : YUV
Chroma subsampling : 4:2:0
Bit depth : 8 bits
Scan type : Progressive
Bits/(Pixel*Frame) : 0.094
Stream size : 919 MiB (79%)
Writing library : x264 core 148 r2717 0d2410d
Encoding settings : cabac=1 / ref=3 / deblock=1:0:0 / analyse=0x1:0x111 / me=umh / subme=10 / psy=1 / psy_rd=1.00:0.00 / mixed_ref=1 / me_range=24 / chroma_me=1 / trellis=2 / 8x8dct=0 / cqm=0 / deadzone=21,11 / fast_pskip=1 / chroma_qp_offset=-2 / threads=8 / lookahead_threads=1 / sliced_threads=0 / nr=0 / decimate=1 / interlaced=0 / bluray_compat=0 / stitchable=1 / constrained_intra=0 / bframes=2 / b_pyramid=0 / b_adapt=2 / b_bias=0 / direct=3 / weightb=1 / open_gop=0 / weightp=2 / keyint=250 / keyint_min=25 / scenecut=0 / intra_refresh=0 / rc_lookahead=50 / rc=2pass / mbtree=1 / bitrate=4870 / ratetol=1.0 / qcomp=0.50 / qpmin=6 / qpmax=51 / qpstep=4 / cplxblur=20.0 / qblur=0.5 / vbv_maxrate=7305 / vbv_bufsize=9740 / nal_hrd=vbr / filler=0 / ip_ratio=1.40 / aq=1:1.00
Default : Yes
Forced : No

Audio #1
ID : 2
Format : E-AC-3
Format/Info : Enhanced AC-3
Commercial name : Dolby Digital Plus
Codec ID : A_EAC3
Duration : 27 min 10 s
Bit rate mode : Constant
Bit rate : 640 kb/s
Channel(s) : 6 channels
Channel layout : L R C LFE Ls Rs
Sampling rate : 48.0 kHz
Frame rate : 31.250 FPS (1536 SPF)
Compression mode : Lossy
Stream size : 124 MiB (11%)
Language : Russian
Service kind : Complete Main
Default : Yes
Forced : No

Audio #2
ID : 3
Format : E-AC-3
Format/Info : Enhanced AC-3
Commercial name : Dolby Digital Plus
Codec ID : A_EAC3
Duration : 27 min 10 s
Bit rate mode : Constant
Bit rate : 640 kb/s
Channel(s) : 6 channels
Channel layout : L R C LFE Ls Rs
Sampling rate : 48.0 kHz
Frame rate : 31.250 FPS (1536 SPF)
Compression mode : Lossy
Stream size : 124 MiB (11%)
Language : English
Service kind : Complete Main
Default : No
Forced : No

Text #1
ID : 4
Format : UTF-8
Codec ID : S_TEXT/UTF8
Codec ID/Info : UTF-8 Plain Text
Duration : 10 min 49 s
Bit rate : 2 b/s
Count of elements : 4
Stream size : 234 Bytes (0%)
Title : Forced
Language : Russian
Default : Yes
Forced : No

Text #2
ID : 5
Format : UTF-8
Codec ID : S_TEXT/UTF8
Codec ID/Info : UTF-8 Plain Text
Duration : 25 min 16 s
Bit rate : 107 b/s
Count of elements : 432
Stream size : 20.0 KiB (0%)
Language : Russian
Default : No
Forced : No

Text #3
ID : 6
Format : UTF-8
Codec ID : S_TEXT/UTF8
Codec ID/Info : UTF-8 Plain Text
Duration : 25 min 18 s
Bit rate : 89 b/s
Count of elements : 508
Stream size : 16.6 KiB (0%)
Title : SDH
Language : English
Default : No
Forced : No

Text #4
ID : 7
Format : UTF-8
Codec ID : S_TEXT/UTF8
Codec ID/Info : UTF-8 Plain Text
Duration : 25 min 16 s
Bit rate : 63 b/s
Count of elements : 413
Stream size : 11.7 KiB (0%)
Language : German
Default : No
Forced : No

Text #5
ID : 8
Format : UTF-8
Codec ID : S_TEXT/UTF8
Codec ID/Info : UTF-8 Plain Text
Duration : 25 min 16 s
Bit rate : 61 b/s
Count of elements : 438
Stream size : 11.5 KiB (0%)
Language : Spanish
Default : No
Forced : No

Text #6
ID : 9
Format : UTF-8
Codec ID : S_TEXT/UTF8
Codec ID/Info : UTF-8 Plain Text
Duration : 25 min 16 s
Bit rate : 61 b/s
Count of elements : 432
Stream size : 11.5 KiB (0%)
Language : French
Default : No
Forced : No

Text #7
ID : 10
Format : UTF-8
Codec ID : S_TEXT/UTF8
Codec ID/Info : UTF-8 Plain Text
Duration : 25 min 16 s
Bit rate : 60 b/s
Count of elements : 414
Stream size : 11.1 KiB (0%)
Language : Italian
Default : No
Forced : No

Text #8
ID : 11
Format : UTF-8
Codec ID : S_TEXT/UTF8
Codec ID/Info : UTF-8 Plain Text
Duration : 25 min 16 s
Bit rate : 65 b/s
Count of elements : 418
Stream size : 12.1 KiB (0%)
Title : Brazilian
Language : Portuguese
Default : No
Forced : No

скриншот  скриншот  скриншот  скриншот  
piratbit.org



Скачать Следом за жизнью через торрент https://i2.imageban.ru/out/2022/01/14/e9c20161c8880dfc0b137e0ce86c3d9b.jpg Скачать, смотреть онлайн Следом за жизнью бесплантно в хорошем качестве Описание: Тони был счастливым человеком, пока не пережил страшную потерю. Внезапная смерть жены изменила жизнь главного героя и его самого ... 10 10 3
Торрент: Зарегистрирован [2022-01-14 13:01] · скачан: 13 раз
Статус: √ проверено
Размер: 6.75 GB
Как cкачать? Как скачать Следом за жизнью через торрент | UTorrent

28-11-2019 20:33  

Отключить всю рекламу на сайте

14-01-2022 13:02 Следом за жизнью Скачать торрент  

Цитата:

Перевод: Профессиональный (многоголосый закадровый) VSI Moscow по заказу Netflix

piratbit.org



    Дорогой пользователь! Огромная просьба, поблагодарите релизера, оцените раздачу и оставьте свои комментарий, если Вы скачали Следом за жизнью через торрент бесплатно!
    Комментировать посты могут только пользователи прошедшие не сложную регистрацию
    Показать сообщения:    

    Следом за жизнью через торрент
    Скачать бесплатно Следом за жизнью
    Следом за жизнью скачать торрент
    Следом за жизнью смотреть онлайн
    Cкачать фильм Следом за жизнью бесплатно
    Следом за жизнью скачать торрент в хорошем качестве
    Следом за жизнью смотреть онлайн бесплатно в хорошем качестве


    Вы не можете начинать темы
    Вы не можете отвечать на сообщения
    Вы не можете редактировать свои сообщения
    Вы не можете удалять свои сообщения
    Вы не можете голосовать в опросах
    Вы не можете прикреплять файлы к сообщениям
    Вы можете скачивать файлы