1 сезон

3 сезон

iTunes

1

iTunes

DUB Netflix

iTunes

13

1 сезон

RePack

30

Deluxe

pack

Легкие деньги

ВАЖНО

ИГРА 18+

pack

RePack

MK11

RePack

jed

RePack

fifa19

RePack

RDR2

RePack

NEED FOR SPEED™ PAYBACK

4 сезон

9 сезон

Бесстыжие 9 сезон

Все сериалы

все сериалы на PB.wtf

RePack

FAR CRY 5

Anonymous, доброй ночи, мы не успеваем до 1 числа собрать деньги на оплату серверов, помогите нам пожалуйста в это трудное время. В качестве благодарности мы отключим Вам всю рекламу на сайте (укажите свой ник в строку Ваше имя)!

×
  
Magnet ссылка

Мир! Дружба! Жвачка! / Сезон: 1 / Серии: 1-8 из 8 + Фильм о Фильме (Илья Аксёнов) [2020, Комедия, драма, WEBRip, (Версия 18+)] piratbit.org

Мир! Дружба! Жвачка! через торрент piratbit.org

Раздают: 3 [ 319 KB/s ] Качают: 1 [ 0 KB/s ]
Размер: 4.9 GB | Добавлен: 1 год назад | Торрент скачан:236 раз
Скачать  

28-05-2020 16:49 Мир! Дружба! Жвачка! Скачать торрент  

Мир! Дружба! Жвачка!
Год выпуска: 2020
Страна: Россия
Выпущено: Good Story Media по заказу телеканала ТНТ
Жанр: Комедия, драма
Продолжительность: ~ 00:50:00
Перевод: Не требуется
Субтитры: отсутствуют
Версия 18+.

Режиссер: Илья Аксёнов



В ролях: Юрий Борисов (II), Ксения Каталымова, Степан Девонин, Егор Губарев, Валентина Ляпина, Фёдор Рощин, Ангелина Стречина, Сергей Стёпин, Никита Павленко, Аскар Нигамедзянов

Описание: Сериал о юношеской любви, семейных ценностях, России в преддверии осени 1993-го и возможности выбора, кем стать и по какому пути идти дальше… В центре сюжета – история о простом пареньке Саньке Рябинине. Он верен друзьям, дорожит семьей и обладает обостренным чувством справедливости. Знакомство с соседской девчонкой Женей меняет его жизнь и впутывает в череду опасных событий, в финале которых герой поймет, что ничего не будет прежним ни для него, ни для семьи, ни для всей России…

Качество: WEBRip
Формат: AVI

Видео: XviD build 73, 720x304 (2.35:1), 25.000 fps, ~ 1500 Kbps (~ 0.280 bit/pixel)
Аудио: 48.0 kHz, MP3, 2/0 ch, 192 kbps
скриншот  скриншот  скриншот  скриншот  скриншот  

General
Complete name: D:\Razdachi\Mir.Druzhba.Zhvachka.2020.WEBRip.GeneralFilm\E01.Mir.Druzhba.Zhvachka.avi
Format: AVI
Format/Info: Audio Video Interleave
File size: 557 MiB
Duration: 49 min 42 s
Overall bit rate: 1 568 kb/s
Writing application: VirtualDubMod 1.5.10.3 | www.virtualdub-fr.org || (build 2550/release)
Writing library: VirtualDubMod build 2550/release

Video
ID: 0
Format: MPEG-4 Visual
Format profile: Advanced Simple@L5
Format settings: BVOP1 / Custom Matrix
Format settings, BVOP: 1
Format settings, QPel: No
Format settings, GMC: No warppoints
Format settings, Matrix: Custom
Codec ID: XVID
Codec ID/Hint: XviD
Duration: 49 min 42 s
Bit rate: 1 366 kb/s
Width: 720 pixels
Height: 304 pixels
Display aspect ratio: 2.35:1
Frame rate: 25.000 FPS
Color space: YUV
Chroma subsampling: 4:2:0
Bit depth: 8 bits
Scan type: Progressive
Compression mode: Lossy
Bits/(Pixel*Frame): 0.250
Stream size: 486 MiB (87%)
Writing library: XviD 73

Audio
ID: 1
Format: MPEG Audio
Format version: Version 1
Format profile: Layer 3
Codec ID: 55
Codec ID/Hint: MP3
Duration: 49 min 42 s
Bit rate mode: Constant
Bit rate: 192 kb/s
Channel(s): 2 channels
Sampling rate: 48.0 kHz
Frame rate: 41.667 FPS (1152 SPF)
Compression mode: Lossy
Stream size: 68.3 MiB (12%)
Alignment: Aligned on interleaves
Interleave, duration: 40 ms (1.00 video frame)
Interleave, preload duratio: 504 ms
Writing library: LAME3.99r
Encoding settings: -m s -V 4 -q 2 -lowpass 18.6 -b 192

piratbit.org



Скачать Мир! Дружба! Жвачка! через торрент https://img12.lostpic.net/2020/04/22/aa58be82d2d5d6bd2f3fc6e122614d72.jpg Скачать фильм Мир! Дружба! Жвачка! через торрент бесплантно в хорошем качестве Описание: Сериал о юношеской любви, семейных ценностях, России в преддверии осени 1993-го и возможности выбора, кем стать и по какому пути ... 9.3 10 13
Торрент: Зарегистрирован [2020-05-28 23:03] · скачан: 236 раз
Статус: √ проверено
Размер: 4.9 GB
Как cкачать? Как скачать Мир! Дружба! Жвачка! через торрент | UTorrent

% Раздел Тема Автор DL S | L
TNT serials [ 13.77 GB ] Мир! Дружба! Жвачка! / Сезон: 2 / Серии: 1-8 из 8 + Фильм о фильме [2021 WEBRip 1080p ] bober100 Скачать
16 | 6
Наши сериалы [ 5.3 GB ] Мир! Дружба! Жвачка! / Сезон: 2 / Серии: 1-8 из 8 + Фильм о фильме [2021 WEBRip-AVC ] bober100 Скачать
6 | 4
TNT serials [ 9.36 GB ] Мир! Дружба! Жвачка! / Сезон: 2 / Серии: 1-8 из 8 + Фильм о фильме [2021 WEBRip 720p ] bober100 Скачать
8 | 2
TNT serials [ 5.27 GB ] Мир! Дружба! Жвачка! / Сезон: 2 / Серии: 1-8 из 8 + Фильм о фильме [2021 WEBRip ] bober100 Скачать
62 | 1017
TNT serials [ 13.29 GB ] Мир! Дружба! Жвачка! / Сезон: 1 / Серии: 1-8 из 8 + Фильм о Фильме [2020 WEBRip 1080p ] bober100 Скачать
6 | 2
TNT serials [ 5.12 GB ] Мир! Дружба! Жвачка! / Сезон: 1 / Серии: 1-8 из 8 + Фильм о Фильме [2020 WEBRip-AVC ] bober100 Скачать
8 | 0
TNT serials [ 9.04 GB ] Мир! Дружба! Жвачка! / Сезон: 1 / Серии: 1-8 из 8 + Фильм о Фильме [2020 WEBRip 720p ] bober100 Скачать
10 | 1


Последний раз редактировалось: bober100 (2020-05-28 23:03), всего редактировалось 3 раз(а)

28-11-2019 20:33  

Отключить всю рекламу на сайте

    Дорогой пользователь! Огромная просьба, поблагодарите релизера, оцените раздачу и оставьте свои комментарий, если Вы скачали Мир! Дружба! Жвачка! через торрент бесплатно! Внесите свою лепту в развитие PiratBit!
    Комментировать посты могут только пользователи прошедшие не сложную регистрацию
    Показать сообщения:    

    Мир! Дружба! Жвачка! через торрент
    Скачать бесплатно Мир! Дружба! Жвачка!
    Мир! Дружба! Жвачка! скачать торрент
    Мир! Дружба! Жвачка! смотреть онлайн
    Cкачать фильм Мир! Дружба! Жвачка! бесплатно
    Мир! Дружба! Жвачка! скачать торрент в хорошем качестве
    Мир! Дружба! Жвачка! смотреть онлайн бесплатно в хорошем качестве


    Вы не можете начинать темы
    Вы не можете отвечать на сообщения
    Вы не можете редактировать свои сообщения
    Вы не можете удалять свои сообщения
    Вы не можете голосовать в опросах
    Вы не можете прикреплять файлы к сообщениям
    Вы можете скачивать файлы