Достать ножи: Стеклянная луковица

MVO

Добыча

Дубляж

Уэнсдэй

1 сезон

Тор

Дубляж

13 клиническая

1 сезон

Жестокая ночь

MVO

Одни из нас

1 сезон

Deluxe

pack

Рекомендуем

30

Пиратка

ВАЖНО

ВАЖНО

Ghostwire

Пиратка

jed

RePack

nioh2

RePack

RDR2

RePack

NEED FOR SPEED™ PAYBACK

RePack

скачать торрент

Кинопоиск HD

Острые козырьки 6 сезон

6 сезон

FAR CRY 6

RePack

скачать торрент

Лицензия

скачать торрент

MVO

1

1 сезон

скачать торрент

1 сезон

скачать торрент

Лицензия

  

Квин и Слим / Queen & Slim (Мелина Матсукас) [2019, Драма, мелодрама, криминал, UHD BDRemux 2160p] Дубляж [Лицензия]

Квин и Слим через торрент piratbit.org

Размер: 52.84 GB | Добавлен: 2 года 7 мес. назад | Торрент скачан:49 раз
Смотреть онлайн | Скачать | Поддержите нас   

02-06-2020 16:48 Квин и Слим Скачать торрент  

Квин и Слим | Queen & Slim
Год выпуска: 2019
Страна: США, Канада
Студия: BRON Studios, 3Blackdot, Creative Wealth Media Finance
Жанр: Драма, мелодрама, криминал
Продолжительность: 02:12:23
Перевод: Дублированный | Лицензия
Субтитры: Русские (Forced, full), английские

Режиссер: Мелина Матсукас

rating

В ролях: Дэниэл Калуя, Джоди Тёрнер-Смит, Боким Вудбайн, Клоэ Севиньи, Фли, Стерджил Симпсон, Индия Мур, Бенито Мартинес, Джахи Диалло Уинстон, Грэйлен Брайант Бэнкс

Описание: Однажды, двое абсолютных незнакомцев, познакомившись в социальных сетях, наконец, устраивают встречу в реале. Но, первое свидание для девушки и парня заканчивается не совсем удачно. Поначалу они ужинают в хорошем ресторане, а после часа приятного времяпровождения в компании друг дружки, решают прокатиться по безлюдным улочкам вечернего города. Не успев выехать на основную трассу, они замечают за машиной хвост. Какой-то полицейский с мигалками останавливает их и на обочине объясняет, что те нарушили законодательство, и совершили жуткое преступление — угон автомобиля.

Качество: UHD BDRemux 2160p
Формат: MKV

Видео: 3840x2160 at 23.976 fps, MPEG-H HEVC HDR Video, 52500 kbps avg
Аудио #01: 48 kHz, AC3, 5.1, 640 Kbps | Лицензия | RUS |
Аудио #02: 48 kHz, TrueHD, 7.1, 3466 Kbps | Оригинал | ENG |
Аудио #03: 48 kHz, AC3, 5.1, 448 Kbps | Оригинал | ENG |
скриншот  скриншот  скриншот  скриншот  скриншот  

General
Unique ID : 333679824052785757501461190257401800498 (0xFB086580E679D208829B7C2831222732)
Complete name : E:Video111Queen.and.Slim.2019.BDREMUX.2160p.HDR.seleZen.mkv
Format : Matroska
Format version : Version 4
File size : 52.8 GiB
Duration : 2 h 12 min
Overall bit rate mode : Variable
Overall bit rate : 57.1 Mb/s
Movie name : Queen & Slim 2019 4K from селезень
Encoded date : UTC 2020-06-02 05:33:12
Writing application : mkvmerge v40.0.0 ('Old Town Road + Pony') 64-bit
Writing library : libebml v1.3.9 + libmatroska v1.5.2

Video
ID : 1
Format : HEVC
Format/Info : High Efficiency Video Coding
Format profile : Main 10@L5.1@High
HDR format : SMPTE ST 2086, HDR10 compatible
Codec ID : V_MPEGH/ISO/HEVC
Duration : 2 h 12 min
Bit rate : 52.5 Mb/s
Width : 3 840 pixels
Height : 2 160 pixels
Display aspect ratio : 16:9
Frame rate mode : Constant
Frame rate : 23.976 (24000/1001) FPS
Color space : YUV
Chroma subsampling : 4:2:0 (Type 2)
Bit depth : 10 bits
Bits/(Pixel*Frame) : 0.264
Stream size : 48.6 GiB (92%)
Language : English
Default : Yes
Forced : No
Color range : Limited
Color primaries : BT.2020
Transfer characteristics : PQ
Matrix coefficients : BT.2020 non-constant
Mastering display color pri: Display P3
Mastering display luminance: min: 0.0050 cd/m2, max: 1000 cd/m2
Maximum Content Light Level: 614 cd/m2
Maximum Frame-Average Light: 67 cd/m2

Audio #1
ID : 2
Format : AC-3
Format/Info : Audio Coding 3
Commercial name : Dolby Digital
Codec ID : A_AC3
Duration : 2 h 12 min
Bit rate mode : Constant
Bit rate : 640 kb/s
Channel(s) : 6 channels
Channel layout : L R C LFE Ls Rs
Sampling rate : 48.0 kHz
Frame rate : 31.250 FPS (1536 SPF)
Compression mode : Lossy
Stream size : 606 MiB (1%)
Title : Дубляж [License]
Language : Russian
Service kind : Complete Main
Default : Yes
Forced : Yes

Audio #2
ID : 3
Format : MLP FBA 16-ch
Format/Info : Meridian Lossless Packing FBA with 16-channel presentation
Commercial name : Dolby TrueHD with Dolby Atmos
Codec ID : A_TRUEHD
Duration : 2 h 12 min
Bit rate mode : Variable
Bit rate : 3 466 kb/s
Maximum bit rate : 6 375 kb/s
Channel(s) : 8 channels
Channel layout : L R C LFE Ls Rs Lb Rb
Sampling rate : 48.0 kHz
Frame rate : 1 200.000 FPS (40 SPF)
Compression mode : Lossless
Stream size : 3.21 GiB (6%)
Title : Original
Language : English
Default : No
Forced : No
Number of dynamic objects : 11
Bed channel count : 1 channel
Bed channel configuration : LFE

Audio #3
ID : 4
Format : AC-3
Format/Info : Audio Coding 3
Commercial name : Dolby Digital
Codec ID : A_AC3
Duration : 2 h 12 min
Bit rate mode : Constant
Bit rate : 448 kb/s
Channel(s) : 6 channels
Channel layout : L R C LFE Ls Rs
Sampling rate : 48.0 kHz
Frame rate : 31.250 FPS (1536 SPF)
Compression mode : Lossy
Stream size : 424 MiB (1%)
Language : English
Service kind : Complete Main
Default : No
Forced : No

Text #1
ID : 5
Format : UTF-8
Codec ID : S_TEXT/UTF8
Codec ID/Info : UTF-8 Plain Text
Duration : 2 h 6 min
Bit rate : 0 b/s
Count of elements : 16
Stream size : 662 Bytes (0%)
Title : Forced [Blu-Ray EUR]
Language : Russian
Default : Yes
Forced : Yes

Text #2
ID : 6
Format : UTF-8
Codec ID : S_TEXT/UTF8
Codec ID/Info : UTF-8 Plain Text
Duration : 2 h 11 min
Bit rate : 62 b/s
Count of elements : 1393
Stream size : 60.2 KiB (0%)
Title : Full [Blu-Ray EUR]
Language : Russian
Default : No
Forced : No

Text #3
ID : 7
Format : UTF-8
Codec ID : S_TEXT/UTF8
Codec ID/Info : UTF-8 Plain Text
Duration : 2 h 10 min
Bit rate : 53 b/s
Count of elements : 1594
Stream size : 50.9 KiB (0%)
Title : Full
Language : English
Default : No
Forced : No

Text #4
ID : 8
Format : UTF-8
Codec ID : S_TEXT/UTF8
Codec ID/Info : UTF-8 Plain Text
Duration : 2 h 10 min
Bit rate : 59 b/s
Count of elements : 1819
Stream size : 56.8 KiB (0%)
Title : SDH
Language : English
Default : No
Forced : No

Menu
00:00:00.000 : en:Chapter 01
00:05:46.763 : en:Chapter 02
00:14:20.109 : en:Chapter 03
00:18:58.637 : en:Chapter 04
00:24:56.662 : en:Chapter 05
00:31:21.880 : en:Chapter 06
00:36:06.039 : en:Chapter 07
00:41:30.822 : en:Chapter 08
00:50:09.924 : en:Chapter 09
00:58:42.102 : en:Chapter 10
01:05:56.703 : en:Chapter 11
01:11:14.520 : en:Chapter 12
01:16:44.725 : en:Chapter 13
01:23:59.826 : en:Chapter 14
01:28:45.612 : en:Chapter 15
01:34:28.830 : en:Chapter 16
01:42:10.291 : en:Chapter 17
01:50:00.469 : en:Chapter 18
01:56:02.247 : en:Chapter 19
02:04:41.140 : en:Chapter 20




Скачать Квин и Слим через торрент https://img10.lostpic.net/2020/06/02/d2b28fe305980d33cd8ed18ccc611eda.jpg Скачать, смотреть онлайн Квин и Слим бесплантно в хорошем качестве Описание: Однажды, двое абсолютных незнакомцев, познакомившись в социальных сетях, наконец, устраивают встречу в реале. Но, первое свидание ... 9.4 10 5
Торрент: Зарегистрирован [2020-06-02 16:48] · скачан: 49 раз
Статус: √ проверено
Размер: 52.84 GB
Как cкачать? Как скачать Квин и Слим через торрент | UTorrent

% Раздел Тема Автор DL S | L
Фильмы 2019-2020 [DVDrip, WEB-DLRip, HDrip] (DUB, MVO) [ 2.18 GB ] Квин и Слим / Queen and Slim | Лицензия | BDRip Twi7ter Скачать
1 | 1
Фильмы 2019-2020 [DVDrip, WEB-DLRip, HDrip] (DUB, MVO) [ 1.46 GB ] Квин и Слим / Queen and Slim | Лицензия | BDRip Twi7ter Скачать
1 | 0
Фильмы [HD 720p, 1080p] (Хороший звук DUB, MVO) [ 9.77 GB ] Квин и Слим / Queen and Slim | Лицензия | 1080p killermax2013 Скачать
1 | 0
Фильмы 2019-2020 [DVDrip, WEB-DLRip, HDrip] (DUB, MVO) [ 1.36 GB ] Квин и Слим / Queen and Slim | | BDRip-AVC killermax2013 Скачать
1 | 0
Фильмы 2019-2020 [DVDrip, WEB-DLRip, HDrip] (DUB, MVO) [ 750 MB ] Квин и Слим / Queen & Slim | Лицензия | HDRip bober100 Скачать
1 | 0
Фильмы (Blu-ray, BD-Remux, HDDVD) [ 32.4 GB ] Квин и Слим / Queen & Slim | Лицензия | BD Remux 1080p bober100 Скачать
1 | 0
Фильмы 2019-2020 [DVDrip, WEB-DLRip, HDrip] (DUB, MVO) [ 2.9 GB ] Квин и Слим / Queen & Slim | Лицензия | BDRip-AVC bober100 Скачать
1 | 0

28-11-2019 20:33  


Отключить вcю реклaмy на сайте, в т.ч. и в плеере онлайн просмотра!

    Дорогой пользователь! Огромная просьба, поблагодарите релизера, оцените раздачу и оставьте свои комментарий, если Вы скачали Квин и Слим через торрент бесплатно!!
    Комментировать посты могут только пользователи прошедшие не сложную регистрацию
    Показать сообщения:    


    Квин и Слим через торрент
    Скачать бесплатно Квин и Слим
    Квин и Слим скачать торрент
    Квин и Слим смотреть онлайн
    Cкачать фильм Квин и Слим бесплатно
    Квин и Слим скачать торрент в хорошем качестве
    Квин и Слим смотреть онлайн бесплатно в хорошем качестве
    Вы не можете начинать темы
    Вы не можете отвечать на сообщения
    Вы не можете редактировать свои сообщения
    Вы не можете удалять свои сообщения
    Вы не можете голосовать в опросах
    Вы не можете прикреплять файлы к сообщениям
    Вы можете скачивать файлы
    Квин и Слим / Queen & Slim [2019, Драма, мелодрама, криминал, UHD BDRemux 2160p] Дубляж [Лицензия] смотреть онлайн, скачать торрент picoco.icu