Ссылка на приватное зеркало всего за 1$. Внимание количество ограничено!!!

iTunes

iTunes

iTunes

1

iTunes

iTunes

iTunes

iTunes

iTunes

30
pack

$ от Little Big

ВАЖНО

!!Акция!!

Alien_RageХит недели

RePack

Resident Evil 21

ИГРА 18+

pack

RePack

jed

!!Акция!!

Alien_Rage

RePack

fifa19

RePack

Assassins Creed: Odyssey

RePack

NEED FOR SPEED™ PAYBACK

4 сезон

9 сезон

Бесстыжие 9 сезон

Все сериалы

все сериалы на PB.wtf

RePack

FAR CRY 5
  

Джентльмены / The Gentlemen (Гай Ричи) [2019, боевик, комедия, криминал, HDRip-AVC] [DVO] (Кубик в Кубе) piratbit.org

Джентльмены через торрент piratbit.org

Раздают: 6 [ 2 KB/s ]
Размер: 2.89 GB | Добавлен: 1 мес. назад | Торрент скачан:100 раз
Скачать  

08-06-2020 18:38 Джентльмены Скачать торрент  

Джентльмены / The Gentlemen
Год выпуска: 2019
Страна: США
Жанр: боевик, комедия, криминал
Продолжительность: 01:53:15
Перевод: Профессиональный (двухголосый закадровый), Кубик в Кубе | НЕНОРМАТИВНАЯ ЛЕКСИКА
Субтитры: русские (форсированные, полные), английские (полные)
Навигация по главам: есть
Режиссер: Гай Ричи / Guy Ritchie
В ролях:
Мэттью МакКонахи, Чарли Ханнэм, Генри Голдинг, Хью Грант, Мишель Докери, Джереми Стронг, Эдди Марсан, Джейсон Вонг, Колин Фаррелл, Лайн Рени
Описание:
Талантливый выпускник Оксфорда, применив свой уникальный ум и невиданную дерзость, придумал нелегальную схему обогащения с использованием поместья обедневшей английской аристократии. Однако когда он решает продать свой бизнес влиятельному клану миллиардеров из США, на его пути встают не менее обаятельные, но жесткие джентльмены. Намечается обмен любезностями, который точно не обойдется без перестрелок и парочки несчастных случаев.

rating

Качество видео: HDRip-AVC
Формат: MKV
Видео кодек: H.264
Аудио кодек: AC3
Видео: 1152x480, 23,976 fps, 3000 kbps
Аудио: AC3, stereo, 192 kbps, 48 kHz (Кубик в Кубе)
Аудио: AC3, DD 5.1, 448 kbps, 48 kHz (Оригинальная англоязычная озвучка)
Субтитры: Русские (форсированные, полные), Английские (полные)

Скачать: SAMPLE 39.60MB

скриншот  скриншот  скриншот  
Формат : Matroska
Версия формата : Version 4
Размер файла : 2,89 Гбайт
Продолжительность : 1 ч. 53 м.
Общий поток : 3641 Кбит/сек
Дата кодирования : UTC 2020-05-14 22:48:50
Программа кодирования : mkvmerge v8.3.0 ('Over the Horizon') 64bit
Библиотека кодирования : libebml v1.3.1 + libmatroska v1.4.2

Видео
Идентификатор : 1
Формат : AVC
Формат/Информация : Advanced Video Codec
Профиль формата : High@L4.1
Настройки формата : CABAC / 10 Ref Frames
Параметр CABAC формата : Да
Параметр RefFrames формата : 10 кадров
Идентификатор кодека : V_MPEG4/ISO/AVC
Продолжительность : 1 ч. 53 м.
Битрейт : 3000 Кбит/сек
Ширина : 1152 пикселя
Высота : 480 пикселей
Соотношение сторон : 2,40:1
Режим частоты кадров : Постоянный
Частота кадров : 23,976 (24000/1001) кадра/сек
Цветовое пространство : YUV
Субдискретизация насыщенности : 4:2:0
Битовая глубина : 8 бит
Тип развёртки : Прогрессивная
Бит/(Пиксели*Кадры) : 0.226
Размер потока : 2,38 Гбайт (82%)
Библиотека кодирования : x264 core 152 r2851 ba24899
Настройки программы : cabac=1 / ref=10 / deblock=1:-2:-1 / analyse=0x3:0x133 / me=umh / subme=10 / psy=1 / psy_rd=0.95:0.05 / mixed_ref=1 / me_range=32 / chroma_me=1 / trellis=2 / 8x8dct=1 / cqm=0 / deadzone=21,11 / fast_pskip=0 / chroma_qp_offset=-3 / threads=3 / lookahead_threads=1 / sliced_threads=0 / nr=0 / decimate=1 / interlaced=0 / bluray_compat=0 / constrained_intra=0 / bframes=9 / b_pyramid=2 / b_adapt=2 / b_bias=0 / direct=3 / weightb=1 / open_gop=0 / weightp=2 / keyint=240 / keyint_min=23 / scenecut=40 / intra_refresh=0 / rc_lookahead=80 / rc=2pass / mbtree=1 / bitrate=3000 / ratetol=1.0 / qcomp=0.60 / qpmin=10 / qpmax=51 / qpstep=4 / cplxblur=20.0 / qblur=0.5 / ip_ratio=1.40 / aq=1:1.00
Язык : English
Default : Да
Forced : Нет

Аудио #1
Идентификатор : 2
Формат : AC-3
Формат/Информация : Audio Coding 3
Коммерческое название : Dolby Digital
Идентификатор кодека : A_AC3
Продолжительность : 1 ч. 53 м.
Вид битрейта : Постоянный
Битрейт : 192 Кбит/сек
Каналы : 2 канала
Channel layout : L R
Частота : 48,0 КГц
Частота кадров : 31,250 кадров/сек (1536 SPF)
Битовая глубина : 16 бит
Метод сжатия : С потерями
Размер потока : 156 Мбайт (5%)
Заголовок : Кубик в Кубе
Язык : Russian
ServiceKind/String : Complete Main
Default : Да
Forced : Нет

Аудио #2
Идентификатор : 3
Формат : AC-3
Формат/Информация : Audio Coding 3
Коммерческое название : Dolby Digital
Идентификатор кодека : A_AC3
Продолжительность : 1 ч. 53 м.
Вид битрейта : Постоянный
Битрейт : 448 Кбит/сек
Каналы : 6 каналов
Channel layout : L R C LFE Ls Rs
Частота : 48,0 КГц
Частота кадров : 31,250 кадров/сек (1536 SPF)
Битовая глубина : 16 бит
Метод сжатия : С потерями
Размер потока : 364 Мбайт (12%)
Заголовок : Оригинальная дорожка
Язык : English
ServiceKind/String : Complete Main
Default : Нет
Forced : Нет

Текст #1
Идентификатор : 4
Формат : UTF-8
Идентификатор кодека : S_TEXT/UTF8
Идентификатор кодека/Информация : UTF-8 Plain Text
Продолжительность : 1 ч. 29 м.
Битрейт : 4 бит/сек
ElementCount : 38
Размер потока : 3,13 Кбайт (0%)
Заголовок : Кубик в Кубе [forced]
Язык : Russian
Default : Да
Forced : Нет

Текст #2
Идентификатор : 5
Формат : UTF-8
Идентификатор кодека : S_TEXT/UTF8
Идентификатор кодека/Информация : UTF-8 Plain Text
Продолжительность : 1 ч. 47 м.
Битрейт : 127 бит/сек
ElementCount : 1711
Размер потока : 101 Кбайт (0%)
Язык : Russian
Default : Нет
Forced : Нет

Текст #3
Идентификатор : 6
Формат : UTF-8
Идентификатор кодека : S_TEXT/UTF8
Идентификатор кодека/Информация : UTF-8 Plain Text
Продолжительность : 1 ч. 47 м.
Битрейт : 84 бит/сек
ElementCount : 1812
Размер потока : 67,0 Кбайт (0%)
Язык : English
Default : Нет
Forced : Нет

Меню
00:00:00.000 : en:Chapter 1
00:04:27.100 : en:Chapter 2
00:08:16.413 : en:Chapter 3
00:13:42.780 : en:Chapter 4
00:19:21.494 : en:Chapter 5
00:24:49.988 : en:Chapter 6
00:30:23.530 : en:Chapter 7
00:37:17.944 : en:Chapter 8
00:41:55.430 : en:Chapter 9
00:48:38.874 : en:Chapter 10
00:56:51.199 : en:Chapter 11
01:03:34.102 : en:Chapter 12
01:08:45.038 : en:Chapter 13
01:14:18.204 : en:Chapter 14
01:19:05.991 : en:Chapter 15
01:24:30.023 : en:Chapter 16
01:29:24.776 : en:Chapter 17
01:34:21.114 : en:Chapter 18
01:40:11.130 : en:Chapter 19
01:48:37.511 : en:Chapter 20

piratbit.org



Скачать Джентльмены через торрент https://d.radikal.ru/d21/2004/cf/8853bb3ee528.png Скачать фильм Джентльмены через торрент бесплантно в хорошем качестве Описание:Талантливый выпускник Оксфорда, применив свой уникальный ум и невиданную дерзость, придумал нелегальную схему обогащения с ... 9 10 7
Info! Золотая раздача, скачанное не засчитывается.
Торрент: Зарегистрирован [2020-06-08 18:38] · скачан: 100 раз
Статус: √ проверено
Размер: 2.89 GB
Как cкачать? Как скачать Джентльмены через торрент | qTorrent

% Раздел Тема Автор DL S | L
Фильмы с авторской озвучкой [ 1.46 GB ] Джентльмены / The Gentlemen [2019 WEB-DLRip] [AVO] killermax2013 Скачать
13 | 0
Фильмы 2019-2020 [DVDrip, WEB-DLRip, HDrip] (DUB, MVO) [ 1.37 GB ] Джентльмены / The Gentlemen [2019 BDRip-AVC] Dub sokol_ok Скачать
314 | 17
Фильмы (HD 720p, 1080p) (48-60 fps) [ 3.93 GB ] Джентльмены / The Gentlemen [2019 . BDRip 1080p / 60 FPS AVO Яроцкий] dd2d3 Скачать
4 | 0
Фильмы [HD 720p, 1080p] (Хороший звук DUB, MVO) [ 5.54 GB ] Джентльмены / The Gentlemen [2019 BDRip 720p] DUB bober100 Скачать
18 | 0
Фильмы [HD 720p, 1080p] (Звук Cam, VO, DVO) [ 7.39 GB ] Джентльмены / The Gentlemen [2019 BDRip 1080p] DVO [Кубик в Кубе] bober100 Скачать
13 | 0
Ultra HD (UHD: 2K, 4K, 8K) — видео сверхвысокой чёткости [ 15.83 GB ] Джентльмены / The Gentlemen [2019 UHD BDRip 2160p] DUB + MVO + 3xAVO sheker187 Скачать
6 | 0
Фильмы (WEB-DL 720p, 1080p) [ 9.43 GB ] Джентльмены / The Gentlemen [2019 WEB-DL 1080p] DUB +MVO+2xAVO bober100 Скачать
22 | 0

28-11-2019 20:33  

Отключить всю рекламу на сайте

    Дорогой пользователь! Огромная просьба, поблагодарите релизера, оцените раздачу и оставьте свои комментарий, если Вы скачали Джентльмены через торрент бесплатно! Внесите свою лепту в развитие PiratBit!
    Комментировать посты могут только пользователи прошедшие не сложную регистрацию
    Показать сообщения:    

    Джентльмены через торрент
    Скачать бесплатно Джентльмены
    Джентльмены скачать торрент
    Джентльмены смотреть онлайн
    Cкачать фильм Джентльмены бесплатно
    Джентльмены скачать торрент в хорошем качестве
    Джентльмены смотреть онлайн бесплатно в хорошем качестве


    Вы не можете начинать темы
    Вы не можете отвечать на сообщения
    Вы не можете редактировать свои сообщения
    Вы не можете удалять свои сообщения
    Вы не можете голосовать в опросах
    Вы не можете прикреплять файлы к сообщениям
    Вы можете скачивать файлы