1 сезон

3 сезон

iTunes

1

iTunes

DUB Netflix

iTunes

13

1 сезон

RePack

30

Deluxe

pack

Легкие деньги

ВАЖНО

ИГРА 18+

pack

RePack

MK11

RePack

jed

RePack

fifa19

RePack

RDR2

RePack

NEED FOR SPEED™ PAYBACK

4 сезон

9 сезон

Бесстыжие 9 сезон

Все сериалы

все сериалы на PB.wtf

RePack

FAR CRY 5

Anonymous, добрый день, мы не успеваем до 1 числа собрать деньги на оплату серверов, помогите нам пожалуйста в это трудное время. В качестве благодарности мы отключим Вам всю рекламу на сайте (укажите свой ник в строку Ваше имя)!

×
  
Magnet ссылка

Окаянные дни / Сезон: 1 / Серии: 1-10 из 10 (Андрей Болтенко, Пётр Буслов, Владимир Епифанцев) [2020, Комедия, WEBRip] piratbit.org

Окаянные дни через торрент piratbit.org

Раздают: 1 [ 0 KB/s ]
Размер: 2.01 GB | Добавлен: 11 мес. назад | Торрент скачан:257 раз
Скачать  

11-06-2020 01:56 Окаянные дни Скачать торрент  

Окаянные дни
Год выпуска: 2020
Страна: Россия
Выпущено: Comedy Club Production
Жанр: Комедия
Продолжительность: ~ 00:27:00
Субтитры: отсутствуют

Режиссер: Андрей Болтенко, Ирина Вилкова, Пётр Буслов, Максим Пежемский, Роман Волобуев, Владимир Епифанцев



В ролях: Фёдор Бондарчук, Анна Михалкова, Павел Деревянко, Александр Робак, Татьяна Догилева, Тимофей Трибунцев, Юлия Топольницкая, Владимир Епифанцев, Мария Машкова, Александр Ильин, Ольга Дибцева, Никита Тарасов, Дмитрий Лысенков, Светлана Камынина, Григорий Калинин, Даниил Воробьёв, Елена Валюшкина, Ольга Виниченко

Описание: 10 историй, снятых в формате скринлайф, рассказывающих о том, что происходило с жителями нашей страны во время карантина. Благодаря самоизоляции вскрылись самые неожиданные стороны человеческой природы. Жизнь разделилась на ДО и ПОСЛЕ, и если ДО дистанционное существование воспринималось, как несомненное благо, то ПОСЛЕ для большинства оно превратилось в наказание. Дивный новый мир удаленки создал новое существо, человека эпохи самоизоляции и породил удивительные истории, которые вряд ли бы произошли при других обстоятельствах.

Качество: WEBRip
Формат: AVI

Видео: XviD, ~ 1600 Кбит/с, 720х400, 25 кадр/с
Аудио: 48.0 kHz, AC3 Dolby Digital, 2/0 (L,R) ch, ~ 192 kbps
скриншот  скриншот  скриншот  скриншот  скриншот  

General
Complete name : H:\fiiles x\Окаянные дни .2020...WEB-DLRip. Files-x\01. Окаянные дни .2020.WEB-DLRip. Files-x.avi
Format : AVI
Format/Info : Audio Video Interleave
File size : 355 MiB
Duration : 27mn 32s
Overall bit rate : 1 801 Kbps
Writing application : VirtualDubMod 1.5.10.3 | www.virtualdub-fr.org || (build 2550/release)
Writing library : VirtualDubMod build 2550/release

Video
ID : 0
Format : MPEG-4 Visual
Format profile : Advanced Simple@L5
Format settings, BVOP : 1
Format settings, QPel : No
Format settings, GMC : No warppoints
Format settings, Matrix : Custom
Codec ID : XVID
Codec ID/Hint : XviD
Duration : 27mn 32s
Bit rate : 1 600 Kbps
Width : 720 pixels
Height : 400 pixels
Display aspect ratio : 16:9
Frame rate : 25.000 fps
Color space : YUV
Chroma subsampling : 4:2:0
Bit depth : 8 bits
Scan type : Progressive
Compression mode : Lossy
Bits/(Pixel*Frame) : 0.222
Stream size : 315 MiB (89%)
Writing library : XviD 73

Audio
ID : 1
Format : AC-3
Format/Info : Audio Coding 3
Mode extension : CM (complete main)
Codec ID : 2000
Duration : 27mn 32s
Bit rate mode : Constant
Bit rate : 192 Kbps
Channel(s) : 2 channels
Channel positions : Front: L R
Sampling rate : 48.0 KHz
Bit depth : 16 bits
Compression mode : Lossy
Stream size : 37.8 MiB (11%)
Alignment : Split accross interleaves
Interleave, duration : 40 ms (1.00 video frame)
Interleave, preload duration : 500 ms

Внимание! Раздача ведётся путём добавления новых серий; при каждом добавлении создfётся новый торрент. Чтобы начать докачку новой серии, пользователям необходимо сделать следующее: (1) остановить скачивание, (2) удалить старый торрент у себя из клиента (старые серии удалять не надо), (3) скачать новый торрент и запустить его у себя в клиенте вместо старого, при этом указать клиенту путь в старую папку куда и должно происходить скачивание новых серий.

Ваш клиент при этом должен произвести хеширование (проверку) старой папки (если не производит сам - помогите ему сделать это), и будет докачивать только те серии которых у вас ещё нет. Старые серии при этом не удаляются, а продолжают раздаваться!

Eсли вы уже удалили старые серии, то предотвратить повторную закачку старых серий можно, отжав галочку в соответсвующих местах при запуске нового торрента.
piratbit.org



Скачать Окаянные дни через торрент https://i112.fastpic.ru/big/2020/0611/c6/f23e84f3dde1e061098ff124ce0354c6.jpg Скачать фильм Окаянные дни через торрент бесплантно в хорошем качестве Описание: 10 историй, снятых в формате скринлайф, рассказывающих о том, что происходило с жителями нашей страны во время карантина. ... 10 10 11
Info! Золотая раздача, скачанное не засчитывается.
Торрент: Зарегистрирован [2020-07-20 19:58] · скачан: 257 раз
Статус: √ проверено
Размер: 2.01 GB
Как cкачать? Как скачать Окаянные дни через торрент | UTorrent

% Раздел Тема Автор DL S | L
TNT serials [ 5.18 GB ] Окаянные дни / Сезон: 1 / Серии: 1-10 из 10 [2020 WEBRip 1080p] bober100 Скачать
1 | 0
TNT serials [ 3.52 GB ] Окаянные дни / Сезон: 1 / Серии: 1-10 из 10 [2020 WEBRip 720p] bober100 Скачать
1 | 0
TNT serials [ 2.01 GB ] Окаянные дни / Сезон: 1 / Серии: 1-10 из 10 [2020 WEBRip-AVC] bober100 Скачать
1 | 0

28-11-2019 20:33  

Отключить всю рекламу на сайте

    Дорогой пользователь! Огромная просьба, поблагодарите релизера, оцените раздачу и оставьте свои комментарий, если Вы скачали Окаянные дни через торрент бесплатно! Внесите свою лепту в развитие PiratBit!
    Комментировать посты могут только пользователи прошедшие не сложную регистрацию
    Показать сообщения:    

    Окаянные дни через торрент
    Скачать бесплатно Окаянные дни
    Окаянные дни скачать торрент
    Окаянные дни смотреть онлайн
    Cкачать фильм Окаянные дни бесплатно
    Окаянные дни скачать торрент в хорошем качестве
    Окаянные дни смотреть онлайн бесплатно в хорошем качестве


    Вы не можете начинать темы
    Вы не можете отвечать на сообщения
    Вы не можете редактировать свои сообщения
    Вы не можете удалять свои сообщения
    Вы не можете голосовать в опросах
    Вы не можете прикреплять файлы к сообщениям
    Вы можете скачивать файлы