1 сезон

3 сезон

iTunes

1

iTunes

DUB Netflix

iTunes

13

1 сезон

RePack

30

Deluxe

pack

Легкие деньги

ВАЖНО

ИГРА 18+

pack

RePack

MK11

RePack

jed

RePack

fifa19

RePack

RDR2

RePack

NEED FOR SPEED™ PAYBACK

4 сезон

9 сезон

Бесстыжие 9 сезон

Все сериалы

все сериалы на PB.wtf

RePack

FAR CRY 5

Anonymous, добрый день, мы не успеваем до 1 числа собрать деньги на оплату серверов, помогите нам пожалуйста в это трудное время. В качестве благодарности мы отключим Вам всю рекламу на сайте (укажите свой ник в строку Ваше имя)!

×
  
Magnet ссылка

Окаянные дни / Сезон: 1 / Серии: 1-10 из 10 (Андрей Болтенко, Пётр Буслов, Владимир Епифанцев) [2020, Комедия, WEBRip 1080p] piratbit.org

Окаянные дни через торрент piratbit.org

Размер: 5.18 GB | Добавлен: 11 мес. назад | Торрент скачан:352 раза
Скачать  

11-06-2020 02:03 Окаянные дни Скачать торрент  

Окаянные дни
Год выпуска: 2020
Страна: Россия
Выпущено: Comedy Club Production
Жанр: Комедия
Продолжительность: ~ 00:27:00
Субтитры: отсутствуют

Режиссер: Андрей Болтенко, Ирина Вилкова, Пётр Буслов, Максим Пежемский, Роман Волобуев, Владимир Епифанцев



В ролях: Фёдор Бондарчук, Анна Михалкова, Павел Деревянко, Александр Робак, Татьяна Догилева, Тимофей Трибунцев, Юлия Топольницкая, Владимир Епифанцев, Мария Машкова, Александр Ильин, Ольга Дибцева, Никита Тарасов, Дмитрий Лысенков, Светлана Камынина, Григорий Калинин, Даниил Воробьёв, Елена Валюшкина, Ольга Виниченко

Описание: 10 историй, снятых в формате скринлайф, рассказывающих о том, что происходило с жителями нашей страны во время карантина. Благодаря самоизоляции вскрылись самые неожиданные стороны человеческой природы. Жизнь разделилась на ДО и ПОСЛЕ, и если ДО дистанционное существование воспринималось, как несомненное благо, то ПОСЛЕ для большинства оно превратилось в наказание. Дивный новый мир удаленки создал новое существо, человека эпохи самоизоляции и породил удивительные истории, которые вряд ли бы произошли при других обстоятельствах.

Качество: WEBRip 1080p
Формат: MKV

Видео: MPEG-4 AVC, ~ 4500 Кбит/с, 1920x1072, 25 кадр/с
Аудио: 48.0 kHz, AC3 Dolby Digital, 2/0 (L,R) ch, ~ 192 kbps
скриншот  скриншот  скриншот  скриншот  

Общее
Уникальный идентификатор : 194032679289728045236984595912062626554 (0x91F955B06E666947A35A725DE41B6AFA)
Полное имя : C:\Okayannye.dni.2020.WEB-DL.(1080p).Getty\Okayannye.dni.e01.2020.WEB-DL.(1080p).Getty.mkv
Формат : Matroska
Версия формата : Version 4
Размер файла : 914 Мбайт
Продолжительность : 27 м. 32 с.
Режим общего битрейта : Переменный
Общий поток : 4640 Кбит/сек
Название фильма : Okayannye.dni.e01.2020.WEB-DL.(1080p).Getty
Дата кодирования : UTC 2020-06-10 21:05:04
Программа кодирования : mkvmerge v7.8.0 ('River Man') 32bit built on Mar 27 2015 16:18:02
Библиотека кодирования : libebml v1.3.1 + libmatroska v1.4.2

Видео
Идентификатор : 1
Формат : AVC
Формат/Информация : Advanced Video Codec
Профиль формата : High@L4
Настройки формата : CABAC / 1 Ref Frames
Параметр CABAC формата : Да
Параметр RefFrames формата : 1 кадр
Параметр GOP формата : M=1, N=50
Идентификатор кодека : V_MPEG4/ISO/AVC
Продолжительность : 27 м. 32 с.
Вид битрейта : Переменный
Битрейт : 4356 Кбит/сек
Максимальный битрейт : 4500 Кбит/сек
Ширина : 1920 пикселей
Высота : 1072 пикселя
Соотношение сторон : 16:9
Режим частоты кадров : Постоянный
Частота кадров : 25,000 кадров/сек
Цветовое пространство : YUV
Субдискретизация насыщенности : 4:2:0
Битовая глубина : 8 бит
Тип развёртки : Прогрессивная
Бит/(Пиксели*Кадры) : 0.085
Размер потока : 858 Мбайт (94%)
Default : Да
Forced : Нет

Аудио
Идентификатор : 2
Формат : AC-3
Формат/Информация : Audio Coding 3
Коммерческое название : Dolby Digital
Идентификатор кодека : A_AC3
Продолжительность : 27 м. 32 с.
Вид битрейта : Постоянный
Битрейт : 192 Кбит/сек
Каналы : 2 канала
ChannelLayout : L R
Частота : 48,0 КГц
Частота кадров : 31,250 кадров/сек (1536 SPF)
Битовая глубина : 16 бит
Метод сжатия : С потерями
Размер потока : 37,8 Мбайт (4%)
ServiceKind/String : Complete Main
Default : Да
Forced : Нет

Внимание! Раздача ведётся путём добавления новых серий; при каждом добавлении создfётся новый торрент. Чтобы начать докачку новой серии, пользователям необходимо сделать следующее: (1) остановить скачивание, (2) удалить старый торрент у себя из клиента (старые серии удалять не надо), (3) скачать новый торрент и запустить его у себя в клиенте вместо старого, при этом указать клиенту путь в старую папку куда и должно происходить скачивание новых серий.

Ваш клиент при этом должен произвести хеширование (проверку) старой папки (если не производит сам - помогите ему сделать это), и будет докачивать только те серии которых у вас ещё нет. Старые серии при этом не удаляются, а продолжают раздаваться!

Eсли вы уже удалили старые серии, то предотвратить повторную закачку старых серий можно, отжав галочку в соответсвующих местах при запуске нового торрента.
piratbit.org



Скачать Окаянные дни через торрент https://i112.fastpic.ru/big/2020/0611/c6/f23e84f3dde1e061098ff124ce0354c6.jpg Скачать фильм Окаянные дни через торрент бесплантно в хорошем качестве Описание: 10 историй, снятых в формате скринлайф, рассказывающих о том, что происходило с жителями нашей страны во время карантина. ... 10 10 14
Торрент: Зарегистрирован [2020-07-16 17:56] · скачан: 352 раз
Статус: √ проверено
Размер: 5.18 GB
Как cкачать? Как скачать Окаянные дни через торрент | UTorrent

% Раздел Тема Автор DL S | L
TNT serials [ 3.52 GB ] Окаянные дни / Сезон: 1 / Серии: 1-10 из 10 [2020 WEBRip 720p] bober100 Скачать
1 | 0
TNT serials [ 2.01 GB ] Окаянные дни / Сезон: 1 / Серии: 1-10 из 10 [2020 WEBRip-AVC] bober100 Скачать
1 | 0
TNT serials [ 2.01 GB ] Окаянные дни / Сезон: 1 / Серии: 1-10 из 10 [2020 WEBRip] bober100 Скачать
4 | 0

28-11-2019 20:33  

Отключить всю рекламу на сайте

20-07-2020 22:51 Окаянные дни Скачать торрент  

Шляпа полная, посмотрел 4 серии с горем пополам...на большее меня не хватило - УГ.piratbit.org



    Дорогой пользователь! Огромная просьба, поблагодарите релизера, оцените раздачу и оставьте свои комментарий, если Вы скачали Окаянные дни через торрент бесплатно! Внесите свою лепту в развитие PiratBit!
    Комментировать посты могут только пользователи прошедшие не сложную регистрацию
    Показать сообщения:    

    Окаянные дни через торрент
    Скачать бесплатно Окаянные дни
    Окаянные дни скачать торрент
    Окаянные дни смотреть онлайн
    Cкачать фильм Окаянные дни бесплатно
    Окаянные дни скачать торрент в хорошем качестве
    Окаянные дни смотреть онлайн бесплатно в хорошем качестве


    Вы не можете начинать темы
    Вы не можете отвечать на сообщения
    Вы не можете редактировать свои сообщения
    Вы не можете удалять свои сообщения
    Вы не можете голосовать в опросах
    Вы не можете прикреплять файлы к сообщениям
    Вы можете скачивать файлы