Ссылка на приватное зеркало всего за 1$. Внимание количество ограничено!!!

iTunes

iTunes

iTunes

1

iTunes

iTunes

iTunes

iTunes

iTunes

30
pack

$ от Little Big

ВАЖНО

!!Акция!!

Alien_RageХит недели

RePack

Resident Evil 21

ИГРА 18+

pack

RePack

jed

!!Акция!!

Alien_Rage

RePack

fifa19

RePack

Assassins Creed: Odyssey

RePack

NEED FOR SPEED™ PAYBACK

4 сезон

9 сезон

Бесстыжие 9 сезон

Все сериалы

все сериалы на PB.wtf

RePack

FAR CRY 5
  

Космические войска / Space Force / Сезон: 1 / Серии: 1-10 из 10 (Пол Кинг, Том Маршалл, Даина Рейд) [2020, Комедия, WEBRip 720p] [DVO] (Кубик в Кубе) piratbit.org

Космические войска через торрент piratbit.org

Раздают: 1 [ 0 KB/s ]
Размер: 12.63 GB | Добавлен: 9 д. назад | Торрент скачан:11 раз
Скачать  

13-06-2020 13:57 Космические войска Скачать торрент  

Космические войска / Space Force

Год выпуска: 2020
Страна: США
Жанр: Комедия
Продолжительность: ~ 00:40:00
Перевод: Профессиональный двухголосый (Кубик в Кубе)

Режиссер: Пол Кинг, Том Маршалл, Даина Рейд

В ролях: Стив Карелл, Оуэн Дэниелс, Ноа Эммерих, Джон Малкович, Тоуни Ньюсом, Бен Шварц, Диана Сильверс, Алексей Воробьёв, Джессика Ст. Клер, Фред Уиллард

Описание: Заслуженный ветеран воздушных сил Марк Р. Нёрд внезапно получает сомнительное повышение — его назначают главой недавно основанных Космических сил США. Генерал Нёрд, возглавивший команду талантливых учёных и астронавтов, должен совершить невозможное — в кратчайшие сроки добиться неоспоримого космического превосходства США и повторить успех предыдущей лунной миссии.

rating

Качество: WEBRip 720p
Формат: MKV
Видео: 1280x582 at 23.976 fps, MPEG-4 AVC, ~4500 kbps avg
Аудио: Russian: 48 kHz, AC3, 3/2 (L,C,R,l,r) + LFE ch, ~640 kbps avg |КвК|
Аудио: English: 48 kHz, AC3, 3/2 (L,C,R,l,r) + LFE ch, ~640 kbps avg
Субтитры: English
скриншот   скриншот   скриншот  

General
Unique ID : 251892319505455464296984709513362949900 (0xBD80B232EEC59CB09E766F5F6B92470C)
Complete name : G:\Space.Force.S01.720p.WEBRip.KvK.CasStudio.TK\Space.Force.S01E01.The.Launch.720p.WEBRip.KvK.CasStudio.TK.mkv
Format : Matroska
Format version : Version 4
File size : 1.46 GiB
Duration : 35 min 30 s
Overall bit rate : 5 900 kb/s
Movie name : Space.Force.S01E01.The.Launch
Encoded date : UTC 2020-06-05 19:13:40
Writing application : mkvmerge v6.7.0 ('Back to the Ground') 64bit built on Jan 8 2014 15:10:52
Writing library : libebml v1.3.0 + libmatroska v1.4.1

Video
ID : 1
Format : AVC
Format/Info : Advanced Video Codec
Format profile : High@L4.1
Format settings : CABAC / 11 Ref Frames
Format settings, CABAC : Yes
Format settings, Reference : 11 frames
Codec ID : V_MPEG4/ISO/AVC
Duration : 35 min 30 s
Bit rate : 4 503 kb/s
Width : 1 280 pixels
Height : 582 pixels
Display aspect ratio : 2.2:1
Frame rate mode : Constant
Frame rate : 23.976 (24000/1001) FPS
Color space : YUV
Chroma subsampling : 4:2:0
Bit depth : 8 bits
Scan type : Progressive
Bits/(Pixel*Frame) : 0.252
Stream size : 1.12 GiB (76%)
Writing library : x264 core 160 r3000+55 7d98a0e patched [(8 & 10)-bit@all X86_64]
Encoding settings : cabac=1 / ref=11 / deblock=1:-3:-3 / analyse=0x3:0x133 / me=umh / subme=10 / psy=1 / fade_compensate=0.00 / psy_rd=1.00:0.15 / mixed_ref=1 / me_range=48 / chroma_me=1 / trellis=2 / 8x8dct=1 / cqm=0 / deadzone=21,11 / fast_pskip=0 / chroma_qp_offset=-3 / threads=12 / lookahead_threads=2 / sliced_threads=0 / nr=0 / decimate=0 / interlaced=0 / bluray_compat=0 / constrained_intra=0 / fgo=0 / bframes=8 / b_pyramid=2 / b_adapt=2 / b_bias=0 / direct=3 / weightb=1 / open_gop=0 / weightp=2 / keyint=250 / keyint_min=23 / scenecut=40 / intra_refresh=0 / rc=crf / mbtree=0 / crf=16.0000 / qcomp=0.60 / qpmin=0:0:0 / qpmax=69:69:69 / qpstep=4 / ip_ratio=1.30 / pb_ratio=1.20 / aq=3:0.80 / aq-sensitivity=10.00 / aq-factor=1.00:1.00:1.00 / aq2=0 / aq3=0
Default : Yes
Forced : No
Duration_Source : General_Duration

Audio #1
ID : 2
Format : AC-3
Format/Info : Audio Coding 3
Commercial name : Dolby Digital
Codec ID : A_AC3
Duration : 35 min 30 s
Bit rate mode : Constant
Bit rate : 640 kb/s
Channel(s) : 6 channels
Channel layout : L R C LFE Ls Rs
Sampling rate : 48.0 kHz
Frame rate : 31.250 FPS (1536 SPF)
Compression mode : Lossy
Stream size : 163 MiB (11%)
Title : KvK DD5.1 @ 640kbps
Language : Russian
Service kind : Complete Main
Default : Yes
Forced : No
Duration_Source : General_Duration

Audio #2
ID : 3
Format : AC-3
Format/Info : Audio Coding 3
Commercial name : Dolby Digital
Codec ID : A_AC3
Duration : 35 min 30 s
Bit rate mode : Constant
Bit rate : 640 kb/s
Channel(s) : 6 channels
Channel layout : L R C LFE Ls Rs
Sampling rate : 48.0 kHz
Frame rate : 31.250 FPS (1536 SPF)
Compression mode : Lossy
Stream size : 163 MiB (11%)
Title : English DD5.1 @ 640kbps
Language : English
Service kind : Complete Main
Default : No
Forced : No
Duration_Source : General_Duration

Text
ID : 4
Format : UTF-8
Codec ID : S_TEXT/UTF8
Codec ID/Info : UTF-8 Plain Text
Title : SDH
Language : English
Default : No
Forced : No

Когда раздача ведётся путём добавления новых серий, при каждом добавлении создётся новый торрент. Чтобы начать докачку новой серии, пользователям необходимо сделать следующее:
(1) остановить скачивание,
(2) удалить старый торрент у себя из клиента (старые серии удалять не надо),
(3) скачать новый торрент и запустить его у себя в клиенте вместо старого, при этом указать клиенту путь в старую папку, куда и должно происходить скачивание новых серий.
Ваш клиент при этом должен произвести хеширование (проверку) старой папки (если не производит сам - помогите ему сделать это), и будет докачивать только те серии, которых у вас ещё нет.Старые серии при этом не удаляются, а продолжают раздаваться!
Eсли вы уже удалили старые серии, то предотвратить повторную закачку старых серий можно, отжав галочку в соответсвующих местах при запуске нового торрента. По возможности, желательно не удалять старые серии как можно дольше, чтобы релизёр не столько продолжал раздавать старые серии, а смог сконцентрироваться на новых.
piratbit.org



Скачать Космические войска через торрент https://i112.fastpic.ru/big/2020/0613/95/6c2c1a81508a43cb97c34f0edf3c4595.jpeg Скачать фильм Космические войска через торрент бесплантно в хорошем качестве Описание: Заслуженный ветеран воздушных сил Марк Р. Нёрд внезапно получает сомнительное повышение — его назначают главой недавно основанных ... 10 10 4
Торрент: Зарегистрирован [2020-07-03 18:42] · скачан: 11 раз
Статус: √ проверено
Размер: 12.63 GB
Как cкачать? Как скачать Космические войска через торрент | qTorrent

% Раздел Тема Автор DL S | L
Зарубежные сериалы [ 21.52 GB ] Космические войска / Space Force / Сезон: 1 / Серии: 1-10 из 10 [2020 WEBRip 1080p] MVO [LostFilm] bober100 Скачать
1 | 0
Зарубежные сериалы [ 3.97 GB ] Космические войска / Space Force / Сезон: 1 / Серии: 1-10 из 10 [2020 WEBRip] MVO [LostFilm] bober100 Скачать
5 | 0
Зарубежные сериалы [ 4.9 GB ] Космические войска / Space Force / Сезон: 1 / Серии: 1-10 из 10 [2020 WEB-DLRip-AVC] MVO [NewStudio] GEKADOL Скачать
2 | 0
Зарубежные сериалы [ 44.54 GB ] Космические войска / Space Force / Сезон: 1 / Серии: 1-10 из 10 [2020 UHD WEB-DL 2160p ] MVO [NewStudio] bober100 Скачать
1 | 0
Зарубежные сериалы [ 10.99 GB ] Космические войска / Space Force / Сезон: 1 / Серии: 1-10 из 10 [2020 WEBRip 1080p] [DVO] + [MVO] killermax2013 Скачать
1 | 0
Зарубежные сериалы [ 6.23 GB ] Космические войска / Space Force / Сезон: 1 / Серии: 1-10 из 10 [2020 WEB-DLRip] DVO [Кубик в Кубе] bober100 Скачать
1 | 0
Зарубежные сериалы [ 22.12 GB ] Космические войска / Space Force / Сезон: 1 / Серии: 1-10 из 10 [2020 WEB-DL 1080p] MVO [NewStudio] bober100 Скачать
3 | 0

28-11-2019 20:33  

Отключить всю рекламу на сайте

    Дорогой пользователь! Огромная просьба, поблагодарите релизера, оцените раздачу и оставьте свои комментарий, если Вы скачали Космические войска через торрент бесплатно! Внесите свою лепту в развитие PiratBit!
    Комментировать посты могут только пользователи прошедшие не сложную регистрацию
    Показать сообщения:    

    Космические войска через торрент
    Скачать бесплатно Космические войска
    Космические войска скачать торрент
    Космические войска смотреть онлайн
    Cкачать фильм Космические войска бесплатно
    Космические войска скачать торрент в хорошем качестве
    Космические войска смотреть онлайн бесплатно в хорошем качестве


    Вы не можете начинать темы
    Вы не можете отвечать на сообщения
    Вы не можете редактировать свои сообщения
    Вы не можете удалять свои сообщения
    Вы не можете голосовать в опросах
    Вы не можете прикреплять файлы к сообщениям
    Вы можете скачивать файлы