Ссылка на приватное зеркало всего за 1$. Внимание количество ограничено!!!

iTunes

iTunes

iTunes

1

iTunes

iTunes

iTunes

iTunes

iTunes

30
pack

$ от Little Big

ВАЖНО

!!Акция!!

Alien_RageХит недели

RePack

Resident Evil 21

ИГРА 18+

pack

RePack

jed

!!Акция!!

Alien_Rage

RePack

fifa19

RePack

Assassins Creed: Odyssey

RePack

NEED FOR SPEED™ PAYBACK

4 сезон

9 сезон

Бесстыжие 9 сезон

Все сериалы

все сериалы на PB.wtf

RePack

FAR CRY 5
  

Эскадрон Стрекоза в 3Д / Dragonfly Squadron 3D (Лесли Селандер / Lesley Selander) [1954, Военный, BDRip, 1080p] OverUnder / Вертикальная стереопара (VO) piratbit.org

Эскадрон Стрекоза в 3Д через торрент piratbit.org

Размер: 23.17 GB | Добавлен: 25 д. назад | Торрент скачан:2 раза
Скачать  

17-06-2020 13:14 Эскадрон Стрекоза в 3Д Скачать торрент  

Эскадрон Стрекоза / Dragonfly Squadron

Год выпуска: 1954
Страна: США (Allied Artists Productions)
Жанр: Военный
Продолжительность: 01:23:30

Перевод: Одноголосый закадровый (А.Багичев)
Русские субтитры: нет
Режиссер: Лесли Селандер / Lesley Selander

В ролях: Джон Ходиак, Барбара Бриттон, Брюс Беннетт, Джесс Баркер, Джералд Мор, Чак Коннорс, Гарри Лоутер, Памела Дункан, Адам Уильямс, Джон Луптон, Бенсон Фонг, Дик Симмонс, Джон Хедло

Описание: В мае 1950-го года майор Мэтью "Мэтт" Брэйди, лишённый права полётов на два года, получает назначение на службу в Пусане, Южная Корея, где он должен будет подготовить нескольких южнокорейских пилотов для обеспечения прикрытия с воздуха на случай срочной эвакуации американских граждан при нападении Северной Кореи.

Сэмпл: http://sendfile.su/1565657

Качество: BDrip, 1080p
Контейнер: MKV
Формат 3D: OverUnder / Вертикальная стереопара
Порядок ракурсов: левый ракурс первый
Видео кодек: x264
Аудио кодек: AC3
Видео: Видео: AVC / High@L5.0 / 23,976 fps / 1920х2160 / 38,0 Мбит/сек
Аудио: Русский / AC3 / 48 KHz / 2.0 ch / 448 Кбит/сек(VO - А.Багичев)
Аудио 2: Английский / AC3 / 48 KHz / 2.0 ch / 448 Кбит/сек

ВНИМАНИЕ ! На встроенных ТВ-плеерах работать не будет!!!

ТВ Samsung в названии которого есть надпись Ultra HD , и LG Ultra HD 800 серии, LG C6P, Xiaomi Mi TV 2, GRUNDIG VLE 8474 BL воспроизводят полные стереопары встроенными плеерами
Железные плееры на которых воспроизводятся полные стереопары:Popcorn C-200, Popcorn a-400, Dune HD Smart D1 , Dune HD DUO , Dune HD Smart H1 , Dune HD Smart B1 , Dune HD Max , Dune HD TV-303D, Dune HD TV-102, Dune HD Base 3D, Philips HMP7001, Aura HD, MECOOL BB2, Zidoo x9s, Lake I Cloud, MiBox 3
Чтобы изображение было на весь экран в плеере выставляем, если рип 1920х1600 - то выставляем 2.35:1 , если 1920х2160 - то выставляем 16:9
Общее
Уникальный идентификатор : 220639327308807584224361353425823857499 (0xA5FD96B77DAB6CB78C7531E87419FB5B)
Полное имя : E:\видео\Dragonfly Squadron.Rip by SeRoGa00.mkv
Формат : Matroska
Версия формата : Version 2
Размер файла : 23,2 Гбайт
Продолжительность : 1 ч. 23 м.
Общий поток : 39,7 Мбит/сек
Дата кодирования : UTC 2020-06-16 14:16:58
Программа кодирования : mkvmerge v3.4.0 ('Rapunzel') сборка от May 15 2010 09:38:20
Библиотека кодирования : libebml v0.8.0 + libmatroska v0.9.0

Видео
Идентификатор : 1
Формат : AVC
Формат/Информация : Advanced Video Codec
Профиль формата : High@L5.0
Параметр CABAC формата : Да
Параметр ReFrames формата : 4 кадра
Идентификатор кодека : V_MPEG4/ISO/AVC
Продолжительность : 1 ч. 23 м.
Битрейт : 38,0 Мбит/сек
Ширина : 1920 пикселей
Высота : 2160 пикселей
Соотношение сторон : 0,889
Частота кадров : 23,976 кадра/сек
Цветовое пространство : YUV
Субдискретизация насыщенности : 4:2:0
Битовая глубина : 8 бит
Тип развёртки : Прогрессивная
Бит/(Пиксели*Кадры) : 0.383
Размер потока : 22,2 Гбайт (96%)
Заголовок : Rip by SeRoGa00
Библиотека кодирования : x264 core 157 r2969 d4099dd
Настройки программы : cabac=1 / ref=4 / deblock=1:-3:-3 / analyse=0x3:0x113 / me=umh / subme=10 / psy=1 / psy_rd=1.00:0.15 / mixed_ref=1 / me_range=24 / chroma_me=1 / trellis=2 / 8x8dct=1 / cqm=0 / deadzone=21,11 / fast_pskip=1 / chroma_qp_offset=-3 / threads=18 / lookahead_threads=6 / sliced_threads=0 / nr=0 / decimate=0 / interlaced=0 / bluray_compat=0 / constrained_intra=0 / bframes=10 / b_pyramid=2 / b_adapt=2 / b_bias=0 / direct=3 / weightb=1 / open_gop=0 / weightp=2 / keyint=250 / keyint_min=23 / scenecut=40 / intra_refresh=0 / rc_lookahead=60 / rc=crf / mbtree=1 / crf=16.5 / qcomp=0.60 / qpmin=10 / qpmax=69 / qpstep=4 / vbv_maxrate=40000 / vbv_bufsize=40000 / crf_max=0.0 / nal_hrd=none / filler=0 / ip_ratio=1.40 / aq=1:1.00
Язык : English
Default : Нет
Forced : Нет

Аудио #1
Идентификатор : 2
Формат : AC-3
Формат/Информация : Audio Coding 3
Расширение режима : CM (complete main)
Параметр Endianness формата : Big
Идентификатор кодека : A_AC3
Продолжительность : 1 ч. 23 м.
Вид битрейта : Постоянный
Битрейт : 448 Кбит/сек
Каналы : 2 канала
Расположение каналов : Front: L R
Частота : 48,0 КГц
Битовая глубина : 16 бит
Метод сжатия : С потерями
Размер потока : 268 Мбайт (1%)
Язык : Russian
Default : Да
Forced : Нет

Аудио #2
Идентификатор : 3
Формат : AC-3
Формат/Информация : Audio Coding 3
Расширение режима : CM (complete main)
Параметр Endianness формата : Big
Идентификатор кодека : A_AC3
Продолжительность : 1 ч. 23 м.
Вид битрейта : Постоянный
Битрейт : 448 Кбит/сек
Каналы : 2 канала
Расположение каналов : Front: L R
Частота : 48,0 КГц
Битовая глубина : 16 бит
Метод сжатия : С потерями
Размер потока : 268 Мбайт (1%)
Язык : English
Default : Нет
Forced : Нет
скриншот  

скриншот  

скриншот  

скриншот  

скриншот  

скриншот  

скриншот  

скриншот  
piratbit.org



Скачать Эскадрон Стрекоза в 3Д через торрент https://b.radikal.ru/b24/2006/d8/5ac8d5656860.jpg Скачать фильм Эскадрон Стрекоза в 3Д через торрент бесплантно в хорошем качестве Описание: В мае 1950-го года майор Мэтью "Мэтт" Брэйди, лишённый права полётов на два года, получает назначение на службу в Пусане, Южная ... 5 10 1
Info! Золотая раздача, скачанное не засчитывается.
Торрент: Зарегистрирован [2020-06-17 13:14] · скачан: 2 раз
Статус: √ проверено
Размер: 23.17 GB
Как cкачать? Как скачать Эскадрон Стрекоза в 3Д через торрент | qTorrent

28-11-2019 20:33  

Отключить всю рекламу на сайте

20-06-2020 21:03 Эскадрон Стрекоза в 3Д Скачать торрент  

serega768, вы для себя такую херь выкладываете? Просто я не представляю кому нужен фильм 1954 года в 3D !!! Может поинтереснее раздачи найдете? Например, попробуйте лучше поискать бамболби в 3D. Он в кинотеатрах шел в 3D формате, а вот на BluRay выпустили только в 2D. Куда полезнее будет!piratbit.org



25-06-2020 02:51 Эскадрон Стрекоза в 3Д Скачать торрент  

Я делаю все фильмы выходящие в 3Д, когда появится диск Бамблби, сделаю и его. В старых фильмах 3Д намного лучше чем в современных.piratbit.org



    Дорогой пользователь! Огромная просьба, поблагодарите релизера, оцените раздачу и оставьте свои комментарий, если Вы скачали Эскадрон Стрекоза в 3Д через торрент бесплатно! Внесите свою лепту в развитие PiratBit!
    Комментировать посты могут только пользователи прошедшие не сложную регистрацию
    Показать сообщения:    

    Эскадрон Стрекоза в 3Д через торрент
    Скачать бесплатно Эскадрон Стрекоза в 3Д
    Эскадрон Стрекоза в 3Д скачать торрент
    Эскадрон Стрекоза в 3Д смотреть онлайн
    Cкачать фильм Эскадрон Стрекоза в 3Д бесплатно
    Эскадрон Стрекоза в 3Д скачать торрент в хорошем качестве
    Эскадрон Стрекоза в 3Д смотреть онлайн бесплатно в хорошем качестве


    Вы не можете начинать темы
    Вы не можете отвечать на сообщения
    Вы не можете редактировать свои сообщения
    Вы не можете удалять свои сообщения
    Вы не можете голосовать в опросах
    Вы не можете прикреплять файлы к сообщениям
    Вы можете скачивать файлы