Достать ножи: Стеклянная луковица

MVO

Добыча

Дубляж

Уэнсдэй

1 сезон

Тор

Дубляж

13 клиническая

1 сезон

Жестокая ночь

MVO

Одни из нас

1 сезон

Deluxe

pack

Рекомендуем

30

Пиратка

ВАЖНО

ВАЖНО

Ghostwire

Пиратка

jed

RePack

nioh2

RePack

RDR2

RePack

NEED FOR SPEED™ PAYBACK

RePack

скачать торрент

Кинопоиск HD

Острые козырьки 6 сезон

6 сезон

FAR CRY 6

RePack

скачать торрент

Лицензия

скачать торрент

MVO

1

1 сезон

скачать торрент

1 сезон

скачать торрент

Лицензия

  

Принцесса-невеста / The Princess Bride (Роб Райнер) [1987, Фэнтези, мелодрама, комедия, приключения, семейный, UHD BDRemux 2160p, (Dolby Vision TV)] MVO [D2Lab]

Принцесса-невеста через торрент piratbit.org

Размер: 43.11 GB | Добавлен: 2 года 7 мес. назад | Торрент скачан:15 раз
Смотреть онлайн | Скачать | Поддержите нас   

21-06-2020 20:16 Принцесса-невеста Скачать торрент  

Принцесса-невеста | The Princess Bride
Год выпуска: 1987
Страна: США
Студия: Act III Communications, Buttercup Films Ltd., The Princess Bride Ltd.
Жанр: Фэнтези, мелодрама, комедия, приключения, семейный
Продолжительность: 01:38:26
Перевод: Профессиональный многоголосый | D2Lab
Субтитры: отсутствуют

Режиссер: Роб Райнер

rating

В ролях: Кэри Элвес, Робин Райт, Мэнди Пэтинкин, Крис Сарандон, Кристофер Гест, Уоллес Шон, Андре Гигант, Фред Сэвидж, Питер Фальк, Питер Кук, Мэл Смит, Кэрол Кэйн, Билли Кристал

Описание: По мотивам одноимённого романа американского писателя Уильяма Голдмана. Добро пожаловать в фантастический мир прекрасных замков, жутких подземелий, бескрайних океанов, лесов и гор. Чтобы спасти свою возлюбленную, прекрасную невесту, отважный герой преодолевает немыслимые препятствия и совершает невероятные подвиги. Это по - настоящему захватывающая история! Сражения на шпагах! Пытки! Месть! Великаны! Злодеи! Прекрасные дамы! Чудовища всех мастей и размеров!

Качество: UHD BDRemux 2160p | Dolby Vision TV
Формат: MP4

Видео: 3840x2160 at 23.976 fps, MPEG-H HEVC HDR, Dolby Vision Video, 57900 kbps avg
Аудио: 48 kHz, AC3, 5.1, 448 Kbps | D2Lab | RUS |
Данный вид релизов (контейнер MP4) предназначен для встроенного в ТВ (соответственно, с поддержкой DV) плеер.
Т.Е. Можно использовать как USB flash/HDD, так и DLNA / Plex - подобные сервисы/программы. дополнительный-внешний плеер не обязателен.

Внимание!
На моделях LG 2016 возможны сюрпризы "через раз", 2017-2018 должно идти без сюрпризов )
скриншот  скриншот  скриншот  скриншот  скриншот  

General
Complete name : E:Video111The.Princess.Bride.1987.BDREMUX.2160p.HDR.DV_TV.seleZen.mp4
Format : MPEG-4
Format profile : Base Media / Version 2
Codec ID : mp42 (mp42/dby1/isom)
File size : 43.1 GiB
Duration : 1 h 38 min
Overall bit rate : 62.7 Mb/s
Encoded date : UTC 2020-06-21 08:17:01
Tagged date : UTC 2020-06-21 08:17:01

Video #1
ID : 1
Format : HEVC
Format/Info : High Efficiency Video Coding
Format profile : Main 10@L5.1@High
HDR format : SMPTE ST 2094 App 4, Version 1, HDR10+ Profile B compatible
Codec ID : hev1
Codec ID/Info : High Efficiency Video Coding
Duration : 1 h 38 min
Bit rate : 57.9 Mb/s
Width : 3 840 pixels
Height : 2 160 pixels
Display aspect ratio : 16:9
Frame rate mode : Constant
Frame rate : 23.976 (24000/1001) FPS
Color space : YUV
Chroma subsampling : 4:2:0 (Type 2)
Bit depth : 10 bits
Bits/(Pixel*Frame) : 0.291
Stream size : 39.8 GiB (92%)
Default : No
Encoded date : UTC 2020-06-21 08:17:01
Tagged date : UTC 2020-06-21 08:17:01
Color range : Limited
Color primaries : BT.2020
Transfer characteristics : PQ
Matrix coefficients : BT.2020 non-constant
Mastering display color pri: Display P3
Mastering display luminance: min: 0.0001 cd/m2, max: 1000 cd/m2
Maximum Content Light Level: 1000 cd/m2
Maximum Frame-Average Light: 400 cd/m2
Codec configuration box : hvcC

Video #2
ID : 2
Format : HEVC
Format/Info : High Efficiency Video Coding
Format profile : Main 10@L5.1@High
HDR format : Dolby Vision, Version 1.0, dvhe.07.06, EL+RPU, Blu-ray compatible / SMPTE ST 2086, HDR10 compatible
Codec ID : dvhe
Codec ID/Info : High Efficiency Video Coding with Dolby Vision
Duration : 1 h 38 min
Bit rate : 4 344 kb/s
Width : 1 920 pixels
Height : 1 080 pixels
Display aspect ratio : 16:9
Frame rate mode : Constant
Frame rate : 23.976 (24000/1001) FPS
Color space : YUV
Chroma subsampling : 4:2:0 (Type 2)
Bit depth : 10 bits
Bits/(Pixel*Frame) : 0.087
Stream size : 2.99 GiB (7%)
Default : No
Encoded date : UTC 2020-06-21 08:17:01
Tagged date : UTC 2020-06-21 08:17:01
Color range : Limited
Color primaries : BT.2020
Transfer characteristics : PQ
Matrix coefficients : BT.2020 non-constant
Mastering display color pri: Display P3
Mastering display luminance: min: 0.0001 cd/m2, max: 1000 cd/m2
Codec configuration box : hvcC+dvcC

Audio
ID : 3
Format : AC-3
Format/Info : Audio Coding 3
Commercial name : Dolby Digital
Codec ID : ac-3
Duration : 1 h 38 min
Bit rate mode : Constant
Bit rate : 448 kb/s
Channel(s) : 6 channels
Channel layout : L R C LFE Ls Rs
Sampling rate : 48.0 kHz
Frame rate : 31.250 FPS (1536 SPF)
Compression mode : Lossy
Stream size : 315 MiB (1%)
Language : Russian
Service kind : Complete Main
Default : No
Encoded date : UTC 2020-06-21 08:17:01
Tagged date : UTC 2020-06-21 08:17:01




Скачать Принцесса-невеста через торрент https://i112.fastpic.ru/big/2020/0621/92/b5977c3685c4dc5a2a1f9e4d2273f992.jpg Скачать, смотреть онлайн Принцесса-невеста бесплантно в хорошем качестве Описание: По мотивам одноимённого романа американского писателя Уильяма Голдмана. Добро пожаловать в фантастический мир прекрасных замков, ... 9.5 10 4
Торрент: Зарегистрирован [2020-06-21 20:16] · скачан: 15 раз
Статус: √ проверено
Размер: 43.11 GB
Как cкачать? Как скачать Принцесса-невеста через торрент | UTorrent

% Раздел Тема Автор DL S | L
Ultra HD (UHD: 2K, 4K, 8K) [ 46.68 GB ] Принцесса-невеста / The Princess Bride | MVO | 2160p, (Dolby Vision bober100 Скачать
1 | 0
Ultra HD (UHD: 2K, 4K, 8K) [ 56.12 GB ] Принцесса-невеста / The Princess Bride | MVO+DVO+VO+6xAVO+MVO | 2160p bober100 Скачать
1 | 0

28-11-2019 20:33  


Отключить вcю реклaмy на сайте, в т.ч. и в плеере онлайн просмотра!

    Дорогой пользователь! Огромная просьба, поблагодарите релизера, оцените раздачу и оставьте свои комментарий, если Вы скачали Принцесса-невеста через торрент бесплатно!!
    Комментировать посты могут только пользователи прошедшие не сложную регистрацию
    Показать сообщения:    


    Принцесса-невеста через торрент
    Скачать бесплатно Принцесса-невеста
    Принцесса-невеста скачать торрент
    Принцесса-невеста смотреть онлайн
    Cкачать фильм Принцесса-невеста бесплатно
    Принцесса-невеста скачать торрент в хорошем качестве
    Принцесса-невеста смотреть онлайн бесплатно в хорошем качестве
    Вы не можете начинать темы
    Вы не можете отвечать на сообщения
    Вы не можете редактировать свои сообщения
    Вы не можете удалять свои сообщения
    Вы не можете голосовать в опросах
    Вы не можете прикреплять файлы к сообщениям
    Вы можете скачивать файлы
    Принцесса-невеста / The Princess Bride [1987, Фэнтези, мелодрама, комедия, приключения, семейный, UHD BDRemux 2160p, ] MVO [D2Lab] смотреть онлайн, скачать торрент picoco.icu