Ссылка на приватное зеркало всего за 1$. Внимание количество ограничено!!!

iTunes

iTunes

iTunes

1

iTunes

iTunes

iTunes

iTunes

iTunes

30
pack

$ от Little Big

ВАЖНО

!!Акция!!

Alien_RageХит недели

RePack

Resident Evil 21

ИГРА 18+

pack

RePack

jed

!!Акция!!

Alien_Rage

RePack

fifa19

RePack

Assassins Creed: Odyssey

RePack

NEED FOR SPEED™ PAYBACK

4 сезон

9 сезон

Бесстыжие 9 сезон

Все сериалы

все сериалы на PB.wtf

RePack

FAR CRY 5
  

Алекс Лютый / Сезон: 1 / Серии: 1-12 из 12 (Леонид Белозорович) [2020, Детектив, история, криминал, WEBRip 1080p] piratbit.org

Алекс Лютый через торрент piratbit.org

Раздают: 8 [ 947 KB/s ] Качают: 4 [ 0 KB/s ]
Размер: 24.13 GB | Добавлен: 4 д. назад | Торрент скачан:26 раз
Скачать  

23-06-2020 03:32 Алекс Лютый Скачать торрент  

Алекс Лютый
Год выпуска: 2020
Страна: Россия
Выпущено: АМЕДИА Продакшн по заказу телеканала НТВ
Жанр: Детектив, история, криминал
Перевод: Не требуется
Продолжительность: ~ 00:49:00

Субтитры: отсутствуют

Режиссер: Леонид Белозорович



В ролях: Владислав Коноплёв, Сергей Пускепалис, Юрий Ицков, Алексей Кирсанов, Дмитрий Муляр, Анастасия Мытражик, Екатерина Решетникова, Дирк Мартенс, Геннадий Смирнов, Андрей Зибров, Дмитрий Сутырин, Мирослава Михайлова, Антон Чернов, Вадим Ахметов (II), Алёна Кучкова, Виталий Крылов, Оксана Базилевич, Александр Мосолов (I), Фёдор Лещев, Наталья Ткаченко, Виктор Конухин

Описание: Фильм основан на реальных событиях – истории разоблачения одного из самых жестоких нацистских преступников Александра Юхновского, которому немцы дали кличку Алекс Лютый. 1975 год. На своей подмосковной даче убит писатель, готовящий к выпуску книгу о гитлеровском палаче Алексе Лютом. Прямо перед смертью он успевает сообщить своему другу – начальнику спецотдела МВД по розыску военных преступников, генералу Петру Сомову – невероятную новость: Лютый, который считался погибшим с 1944 года, жив! Сомов даёт задание разобраться в этом деле своему лучшему следователю – полковнику Егору Сухареву. В этом ему помогает новый сотрудник спецотдела – старший лейтенант Борис Касьянов.

Качество: WEBRip 1080p
Формат: MKV

Видео: 1920х1080 (16:9), 25 fps, AVC MPEG-4 (x264), High@L4.1 ~ 6000 kbps avg, 0.116 bit/pixel
Аудио: 48.0 kHz, AC3 Dolby Digital, 2/0 (L,R) ch, ~ 192 kbps
скриншот  скриншот  скриншот  скриншот  

General
Unique ID : 203752065625658895685184309827859492365 (0x9949386EE1B938269F24F9508C21AE0D)
Complete name : C:Aleks.Lyutyj.E01.2019.WEB-DL.(1080p).ExKinoRay.mkv
Format : Matroska
File size : 2.02 GiB
Duration : 47mn 12s
Overall bit rate : 6 129 Kbps
Encoded date : UTC 2020-06-22 19:43:36
Writing application : mkvmerge v6.9.1 ('Blue Panther') 64bit built on Apr 18 2014 18:23:38
Writing library : libebml v1.3.0 + libmatroska v1.4.1

Video
ID : 1
Format : AVC
Format/Info : Advanced Video Codec
Format profile : High@L4.1
Format settings, CABAC : No
Format settings, ReFrames : 2 frames
Codec ID : V_MPEG4/ISO/AVC
Duration : 47mn 12s
Bit rate mode : Constant
Bit rate : 6 000 Kbps
Width : 1 920 pixels
Height : 1 080 pixels
Display aspect ratio : 16:9
Frame rate : 25.000 fps
Standard : PAL
Color space : YUV
Chroma subsampling : 4:2:0
Bit depth : 8 bits
Scan type : Progressive
Bits/(Pixel*Frame) : 0.116
Stream size : 1.92 GiB (95%)
Color primaries : BT.709-5, BT.1361, IEC 61966-2-4, SMPTE RP177
Transfer characteristics : BT.709-5, BT.1361
Matrix coefficients : BT.709-5, BT.1361, IEC 61966-2-4 709, SMPTE RP177

Audio
ID : 2
Format : AC-3
Format/Info : Audio Coding 3
Mode extension : CM (complete main)
Codec ID : A_AC3
Duration : 47mn 12s
Bit rate mode : Constant
Bit rate : 192 Kbps
Channel(s) : 2 channels
Channel positions : Front: L R
Sampling rate : 48.0 KHz
Bit depth : 16 bits
Compression mode : Lossy
Stream size : 64.8 MiB (3%)
Language : Russian

Внимание! Раздача ведётся путём добавления новых серий; при каждом добавлении создаётся новый торрент.
Чтобы начать докачку новой серии, пользователям необходимо сделать следующее:
1. Остановить скачивание;
2. Удалить старый торрент у себя из клиента (старые серии удалять не надо);
3. Скачать новый торрент и запустить его у себя в клиенте вместо старого, при этом указать клиенту путь в старую папку куда и должно происходить скачивание новых серий. Ваш клиент при этом должен произвести хеширование (проверку) старой папки и будет докачивать только те серии, которых у вас ещё нет. Старые серии при этом не удаляются, а продолжают раздаваться! Eсли вы уже удалили старые серии, то предотвратить повторную закачку старых серий можно, отжав галочку в соответствующих местах при запуске нового торрента.

piratbit.org



Скачать Алекс Лютый через торрент https://i112.fastpic.ru/big/2020/0622/d0/de135c7773f6c4c6d873e5665f354bd0.jpg Скачать фильм Алекс Лютый через торрент бесплантно в хорошем качестве Описание: Фильм основан на реальных событиях – истории разоблачения одного из самых жестоких нацистских преступников Александра Юхновского, ... 9.8 10 12
Торрент: Зарегистрирован [2020-06-30 23:14] · скачан: 26 раз
Статус: √ проверено
Размер: 24.13 GB
Как cкачать? Как скачать Алекс Лютый через торрент | qTorrent

% Раздел Тема Автор DL S | L
Наши сериалы [ 14.54 GB ] Алекс Лютый / Сезон: 1 / Серии: 1-12 из 12 [2020 история WEBRip 720p] bober100 Скачать
8 | 1
Наши сериалы [ 8.63 GB ] Алекс Лютый / Сезон: 1 / Серии: 1-12 из 12 [2020 история WEBRip-AVC] bober100 Скачать
5 | 3
Наши сериалы [ 7.09 GB ] Алекс Лютый / Сезон: 1 / Серии: 1-12 из 12 [2020 история WEBRip] bober100 Скачать
10 | 3
Наши сериалы [ 7.12 GB ] Алекс Лютый / Сезон: 1 / Серии: 1-12 из 12 [2020 история SATRip] bober100 Скачать
12 | 3

28-11-2019 20:33  

Отключить всю рекламу на сайте

    Дорогой пользователь! Огромная просьба, поблагодарите релизера, оцените раздачу и оставьте свои комментарий, если Вы скачали Алекс Лютый через торрент бесплатно! Внесите свою лепту в развитие PiratBit!
    Комментировать посты могут только пользователи прошедшие не сложную регистрацию
    Показать сообщения:    

    Алекс Лютый через торрент
    Скачать бесплатно Алекс Лютый
    Алекс Лютый скачать торрент
    Алекс Лютый смотреть онлайн
    Cкачать фильм Алекс Лютый бесплатно
    Алекс Лютый скачать торрент в хорошем качестве
    Алекс Лютый смотреть онлайн бесплатно в хорошем качестве


    Вы не можете начинать темы
    Вы не можете отвечать на сообщения
    Вы не можете редактировать свои сообщения
    Вы не можете удалять свои сообщения
    Вы не можете голосовать в опросах
    Вы не можете прикреплять файлы к сообщениям
    Вы можете скачивать файлы