Доктор Стрэндж

Лицензия

Добыча

MVO

Дом дракона

1 сезон

Тор

Лицензия

Мэверик

Лицензия

Там, где раки поют

MVO

Властелин колец

1 сезон

Ultimate

pack

Рекомендуем

30

Repack

ВАЖНО

ВАЖНО

Ghostwire

RePack

jed

RePack

nioh2

RePack

RDR2

RePack

NEED FOR SPEED™ PAYBACK

RePack

скачать торрент

Кинопоиск HD

Острые козырьки 6 сезон

6 сезон

FAR CRY 6

RePack

скачать торрент

Лицензия

скачать торрент

MVO

1

1 сезон

скачать торрент

1 сезон

скачать торрент

Лицензия

  

Батальоны просят огня (1-4 серии из 4) (Александр Боголюбов, Владимир Чеботарев) [1985 г., Драма, военный, ВОВ, HDTV (1080i) Оригинал]

Батальоны просят огня через торрент piratbit.org

Размер: 15.28 GB | Добавлен: 2 года 3 мес. назад | Торрент скачан:16 раз
Смотреть онлайн | Скачать   

25-06-2020 13:03 Батальоны просят огня Скачать торрент  

Батальоны просят огня
Год выпуска: 1985
Страна: СССР
Жанр: Драма, военный, ВОВ
Продолжительность: 4 х ~ 01:07:43
Перевод: Оригинал
Субтитры: НЕТ

Режиссер: Александр Боголюбов, Владимир Чеботарев

В ролях: Александр Збруев, Борислав Брондуков, Вадим Спиридонов, Олег Ефремов, Александр Галибин, Елена Попова, Николай Караченцов, Игорь Скляр, Геннадий Фролов, Владимир Кашпур, Вадим Андреев, Виктор Чеботарев, Игорь Черницкий, Вячеслав Баранов, Александр Панкратов-Чёрный, Михаил Мокеев, Юрий Мысенков, Алексей Колесник, Иван Матвеев

Описание: В основе сюжета лежит один из решающих этапов Великой Отечественной войны — форсирование советскими войсками Днепра в 1943 году. Два батальона брошены в гибельный прорыв на занятый немцами берег реки с целью отвлечь на себя силы противника и тем самым облегчить дивизии бросок на стратегически важный город Днепров. Основные соединения должны поддержать их артиллерийским и авиационным огнем. Однако командование внезапно меняет план наступления, оставляя батальоны без огневой поддержки, чем обрекает их на верную гибель. Более того, солдатам отдан приказ держаться до последнего. Экранизация повести Юрийя Бондареве.

Качество: HDTV (1080i)
Формат: TS
Видео кодек: AVC
Аудио кодек: MP2
Видео: MPEG-4 AVC, (1920x1080),8195 Кбит/с, 25.000 кадра/сек
Аудио#1: МР2, 2 ch,192 kbps (Rus) 48.0 KHz Оригинал
скриншот   скриншот   скриншот  

Название: БАТАЛЬОНЫ ПРОСЯТ ОГНЯ 01
:
Тип потока: Видео
Длительность: 01:01:21
Кодек: AVC
Кодек/описание: Advanced Video Codec
Кодек/профиль: Main@L4.0
Кодек/ID: 27
Кодек/CABAC: Yes
Кодек/ReFrames: 3 frames
Размеры изображения: 1920 x 1080 (16:9)
Частота кадров: 25.000 fps
Размер потока: 3.51 GiB (93%)
Битрейт: 8 195 Kbps
Цветовое пространство: YUV
Тип развёртки: Interlaced
Колориметрия: 4:2:0
Глубина: 8 bits
:
Тип потока: Звук #1
Язык: Russian
Длительность: 01:01:21.264
Кодек: MPEG Audio
Кодек/профиль: Layer 2
Кодек/ID: 3
Частота дискретизации: 48.0 KHz
Каналов: 2 channels
Битрейт: 192 Kbps
Битрейт/тип: Constant
Размер потока: 84.3 MiB (2%)
Метод сжатия: Lossy




Скачать Батальоны просят огня через торрент https://pic1.kartinco.top/images/12/jhq1n.jpg Скачать, смотреть онлайн Батальоны просят огня бесплантно в хорошем качестве Описание: В основе сюжета лежит один из решающих этапов Великой Отечественной войны — форсирование советскими войсками Днепра в 1943 году. ... 10 10 3
Торрент: Зарегистрирован [2020-06-25 13:03] · скачан: 16 раз
Статус: √ проверено
Размер: 15.28 GB
Как cкачать? Как скачать Батальоны просят огня через торрент | UTorrent

% Раздел Тема Автор DL S | L
Наши сериалы [ 4.37 GB ] Батальоны просят огня | | DVDRip Бумер Скачать
1 | 1

28-11-2019 20:33  


Отключить вcю реклaмy на сайте, в т.ч. и в плеере онлайн просмотра!

    Дорогой пользователь! Огромная просьба, поблагодарите релизера, оцените раздачу и оставьте свои комментарий, если Вы скачали Батальоны просят огня через торрент бесплатно!!
    Комментировать посты могут только пользователи прошедшие не сложную регистрацию
    Показать сообщения:    


    Батальоны просят огня через торрент
    Скачать бесплатно Батальоны просят огня
    Батальоны просят огня скачать торрент
    Батальоны просят огня смотреть онлайн
    Cкачать фильм Батальоны просят огня бесплатно
    Батальоны просят огня скачать торрент в хорошем качестве
    Батальоны просят огня смотреть онлайн бесплатно в хорошем качестве
    Вы не можете начинать темы
    Вы не можете отвечать на сообщения
    Вы не можете редактировать свои сообщения
    Вы не можете удалять свои сообщения
    Вы не можете голосовать в опросах
    Вы не можете прикреплять файлы к сообщениям
    Вы можете скачивать файлы