Ссылка на приватное зеркало нашего сайта всего за 1$. Внимание количество ограничено!!!

2 сезон

iTunes

iTunes

1

iTunes

iTunes

iTunes

WEBRip

iTunes

30
pack

Новость дня

ВАЖНО

!!Акция!!

Alien_RageХит недели

RePack

Horizon Zero Dawn

ИГРА 18+

pack

RePack

jed

!!Акция!!

Alien_Rage

RePack

fifa19

RePack

Assassins Creed: Odyssey

RePack

NEED FOR SPEED™ PAYBACK

4 сезон

9 сезон

Бесстыжие 9 сезон

Все сериалы

все сериалы на PB.wtf

RePack

FAR CRY 5
  

После полуночи / After Midnight (Джереми Гарднер, Кристиан Стелла) [2019, Ужасы, фантастика, драма, BDRip 720p] DUB [iTunes] piratbit.org

После полуночи через торрент piratbit.org

Раздают: 1 [ 0 KB/s ]
Размер: 3.11 GB | Добавлен: 2 мес. 25 д. назад | Торрент скачан:107 раз
Скачать  

27-06-2020 05:10 После полуночи Скачать торрент  

После полуночи | After Midnight
Год выпуска: 2019
Страна: США
Студия: Rustic Films, Kavya Films, Vested Interest
Жанр: Ужасы, фантастика, драма
Продолжительность: 01:23:15
Перевод: Дублированный | iTunes
Субтитры: Русские (Full), английские

Режиссер: Джереми Гарднер, Кристиан Стелла

rating скриншот  

В ролях: Джереми Гарднер, Бриа Грант, Джастин Бенсон, Эшли Сонг, Никола Маскотра, Кит Арбетнот, Генри Жебровский

Описание: После долгих лет гражданского брака Хэнка бросила девушка, но погрузиться в пучину меланхолии и как следует поныть и пострадать у него не получается. По ночам к его дому начинает приходить какое-то страшное существо и с явно недобрыми намерениями скрестись в дверь. Мужчина пытается противостоять монстру, попутно вспоминая развалившиеся отношения и пытаясь понять, что же пошло не так.

Качество: BDRip 720p
Формат: MKV

Видео: MPEG-4 AVC, 1280x536, 4302 Kbit/s, 23.976 fps
Аудио #01: 48 kHz, AC3, 5.1, 384 Kbps | iTunes | RUS |
Аудио #02: 48 kHz, AC3, 5.1, 640 Kbps | Оригинал | ENG |
скриншот  скриншот  скриншот  

General
Unique ID : 6429781006530097659141727383281101192 (0x4D654ADD7CB6396B0650FEB22766988)
Complete name : E:Video111After.Midnight.2019.BDRip.720p.seleZen.mkv
Format : Matroska
Format version : Version 4
File size : 3.11 GiB
Duration : 1 h 23 min
Overall bit rate : 5 329 kb/s
Movie name : After Midnight 2019 from селезень
Encoded date : UTC 2020-06-26 11:58:16
Writing application : mkvmerge v40.0.0 ('Old Town Road + Pony') 64-bit
Writing library : libebml v1.3.9 + libmatroska v1.5.2
Cover : Yes
Attachments : cover.jpg

Video
ID : 1
Format : AVC
Format/Info : Advanced Video Codec
Format profile : High@L4.1
Format settings : CABAC / 12 Ref Frames
Format settings, CABAC : Yes
Format settings, Reference : 12 frames
Codec ID : V_MPEG4/ISO/AVC
Duration : 1 h 23 min
Bit rate : 4 302 kb/s
Width : 1 280 pixels
Height : 536 pixels
Display aspect ratio : 2.40:1
Frame rate mode : Constant
Frame rate : 23.976 (24000/1001) FPS
Color space : YUV
Chroma subsampling : 4:2:0
Bit depth : 8 bits
Scan type : Progressive
Bits/(Pixel*Frame) : 0.262
Stream size : 2.51 GiB (81%)
Title : Encoded by seleZen
Writing library : x264 core 142 r2431+42 c69a006 tMod [8-bit@all X86_64]
Encoding settings : cabac=1 / ref=12 / deblock=1:-2:-2 / analyse=0x3:0x133 / me=umh / subme=10 / psy=1 / fade_compensate=0.00 / psy_rd=1.00:0.00 / mixed_ref=1 / me_range=32 / chroma_me=1 / trellis=2 / 8x8dct=1 / cqm=0 / deadzone=21, 11 / fast_pskip=0 / chroma_qp_offset=-2 / threads=24 / lookahead_threads=4 / sliced_threads=0 / nr=0 / decimate=0 / interlaced=0 / bluray_compat=0 / constrained_intra=0 / fgo=0 / bframes=9 / b_pyramid=2 / b_adapt=2 / b_bias=0 / direct=3 / weightb=1 / open_gop=0 / weightp=2 / keyint=240 / keyint_min=23 / scenecut=40 / intra_refresh=0 / rc_lookahead=50 / rc=crf / mbtree=0 / crf=16.8000 / qcomp=0.60 / qpmin=0:0:0 / qpmax=51:51:51 / qpstep=4 / vbv_maxrate=50000 / vbv_bufsize=62500 / crf_max=0.0 / nal_hrd=none / filler=0 / ip_ratio=1.40 / pb_ratio=1.30 / aq=3:0.80 / aq-sensitivity=10.00 / aq-factor=1.00:1.00:1.00 / aq2=0 / aq3=0
Language : English
Default : Yes
Forced : No

Audio #1
ID : 2
Format : AC-3
Format/Info : Audio Coding 3
Commercial name : Dolby Digital
Codec ID : A_AC3
Duration : 1 h 23 min
Bit rate mode : Constant
Bit rate : 384 kb/s
Channel(s) : 6 channels
Channel layout : L R C LFE Ls Rs
Sampling rate : 48.0 kHz
Frame rate : 31.250 FPS (1536 SPF)
Compression mode : Lossy
Stream size : 229 MiB (7%)
Title : iTunes
Language : Russian
Service kind : Complete Main
Default : Yes
Forced : Yes

Audio #2
ID : 3
Format : AC-3
Format/Info : Audio Coding 3
Commercial name : Dolby Digital
Codec ID : A_AC3
Duration : 1 h 23 min
Bit rate mode : Constant
Bit rate : 640 kb/s
Channel(s) : 6 channels
Channel layout : L R C LFE Ls Rs
Sampling rate : 48.0 kHz
Frame rate : 31.250 FPS (1536 SPF)
Compression mode : Lossy
Stream size : 382 MiB (12%)
Title : Original
Language : English
Service kind : Complete Main
Default : No
Forced : No

Text #1
ID : 4
Format : UTF-8
Codec ID : S_TEXT/UTF8
Codec ID/Info : UTF-8 Plain Text
Duration : 1 h 19 min
Bit rate : 71 b/s
Count of elements : 826
Stream size : 41.4 KiB (0%)
Title : Full
Language : Russian
Default : No
Forced : No

Text #2
ID : 5
Format : UTF-8
Codec ID : S_TEXT/UTF8
Codec ID/Info : UTF-8 Plain Text
Duration : 1 h 22 min
Bit rate : 54 b/s
Count of elements : 1014
Stream size : 33.0 KiB (0%)
Title : Full
Language : English
Default : No
Forced : No

Menu
00:00:00.000 : en:Глава 01
00:07:28.073 : en:Глава 02
00:12:56.234 : en:Глава 03
00:20:23.514 : en:Глава 04
00:26:56.865 : en:Глава 05
00:33:33.595 : en:Глава 06
00:40:03.943 : en:Глава 07
00:45:48.204 : en:Глава 08
00:51:15.531 : en:Глава 09
01:06:04.961 : en:Глава 10
01:14:16.535 : en:Глава 11
01:18:37.087 : en:Глава 12

piratbit.org



Скачать После полуночи через торрент https://i112.fastpic.ru/big/2020/0627/b7/b2b3392dc25f36fc3eaab1d428d63fb7.jpg Скачать фильм После полуночи через торрент бесплантно в хорошем качестве Описание: После долгих лет гражданского брака Хэнка бросила девушка, но погрузиться в пучину меланхолии и как следует поныть и пострадать у ... 10 10 4
Торрент: Зарегистрирован [2020-06-27 05:10] · скачан: 107 раз
Статус: √ проверено
Размер: 3.11 GB
Как cкачать? Как скачать После полуночи через торрент | qTorrent

% Раздел Тема Автор DL S | L
Фильмы (Blu-ray, BD-Remux, HDDVD) [ 21.72 GB ] После полуночи / After Midnight [2019 BD Remux 1080p] bober100 Скачать
2 | 0
Фильмы 2019-2020 [DVDrip, WEB-DLRip, HDrip] (DUB, MVO) [ 742 MB ] После полуночи / After Midnight [2019 HDRip] bober100 Скачать
2 | 0
Фильмы [HD 720p, 1080p] (Хороший звук DUB, MVO) [ 10.2 GB ] После полуночи / After Midnight [2019 BDRip 1080p] bober100 Скачать
3 | 0
Фильмы 2019-2020 [DVDrip, WEB-DLRip, HDrip] (DUB, MVO) [ 1.46 GB ] После полуночи / After Midnight [2019 BDRip] bober100 Скачать
4 | 0
Порно фильмы HD [ 3.55 GB ] После Полуночи / After Midnight [2012 Vignettes Straight WEB-DL 720p] Empinado Скачать
1 | 0

28-11-2019 20:33  

Отключить всю рекламу на сайте

    Дорогой пользователь! Огромная просьба, поблагодарите релизера, оцените раздачу и оставьте свои комментарий, если Вы скачали После полуночи через торрент бесплатно! Внесите свою лепту в развитие PiratBit!
    Комментировать посты могут только пользователи прошедшие не сложную регистрацию
    Показать сообщения:    

    После полуночи через торрент
    Скачать бесплатно После полуночи
    После полуночи скачать торрент
    После полуночи смотреть онлайн
    Cкачать фильм После полуночи бесплатно
    После полуночи скачать торрент в хорошем качестве
    После полуночи смотреть онлайн бесплатно в хорошем качестве


    Вы не можете начинать темы
    Вы не можете отвечать на сообщения
    Вы не можете редактировать свои сообщения
    Вы не можете удалять свои сообщения
    Вы не можете голосовать в опросах
    Вы не можете прикреплять файлы к сообщениям
    Вы можете скачивать файлы