Ссылка на приватное зеркало всего за 1$. Внимание количество ограничено!!!

iTunes

iTunes

iTunes

1

iTunes

iTunes

iTunes

iTunes

iTunes

30
pack

$ от Little Big

ВАЖНО

!!Акция!!

Alien_RageХит недели

RePack

Resident Evil 21

ИГРА 18+

pack

RePack

jed

!!Акция!!

Alien_Rage

RePack

fifa19

RePack

Assassins Creed: Odyssey

RePack

NEED FOR SPEED™ PAYBACK

4 сезон

9 сезон

Бесстыжие 9 сезон

Все сериалы

все сериалы на PB.wtf

RePack

FAR CRY 5
  

Нарушая запреты / Tra(sgre)dire (Тинто Брасс) [1999 г., драма, комедия, для взрослых., BDRip 1080p / 60 FPS, DVO R5] piratbit.org

Нарушая запреты через торрент piratbit.org

Раздают: 16 [ 2 MB/s ] Качают: 1 [ 0 KB/s ]
Размер: 3.02 GB | Добавлен: 9 д. назад | Торрент скачан:215 раз
Скачать  

27-06-2020 12:02 Нарушая запреты Скачать торрент  

Нарушая запреты / Tra(sgre)direГод выпуска: 1999
Страна: Италия
Жанр: драма, комедия, для взрослых.
Продолжительность: 01:30:37
Перевод: Профессиональный многоголосый // R5
Субтитры: Русские (Full)

Режиссер: Тинто Брасс

Премьера в мире: 28 января 2000

rating

В ролях: Юлия Маярчук, Ярно Берарди, Франческа Нунци, Марио Пароди, Мауро Лоренц, Лейла Карли, Витторио Аттене, Антонио Салинес, Кьяра Джоббато, Ремо Пиццарони

Описание: Карла Борин молода, сексуальна и полна желаний. Одно из них — освоить английский язык. Для полного погружения в среду Карла приезжает в Лондон, вскоре к ней должен присоединиться ее возлюбленный Матео. В поисках жилья она отправляется в агентство недвижимости, где знакомится с его владелицей.

Получив соблазнительно выгодное предложение, Карла оказывается в ее объятиях… И это лишь небольшой эпизод в ее свободной, полной эротических приключений жизни!

Качество: BDRip 1080p / 60 FPS
Формат: MKV
Видео кодек: H.265
Аудио кодек: AC3
Видео: V_MPEGH/ISO/HEVC; 1920x1080 (16:9); 4503 Kbps; 59,940 fps; 0,036 bpp
Аудио: русский; AC3; 256 Kbps; CBR; 2 ch

Релиз от: DD2D3
скриншот   скриншот   скриншот   скриншот   скриншот  

General
Unique ID : 252296882133536068574156656309694486519 (0xBDCE9CAD3055639786C59703FFE1D7F7)
Complete name : D:\Нарушая запреты - Trasgredire (1999) BDRip - HEVC 1080p 10 bit 60 FPS.mkv
Format : Matroska
Format version : Version 4
File size : 3.02 GiB
Duration : 1 h 30 min
Overall bit rate : 4 772 kb/s
Movie name : Rip by from DD2D3
Encoded date : UTC 2020-06-22 15:44:56
Writing application : mkvmerge v10.0.0 ('To Drown In You') 32bit
Writing library : libebml v1.3.4 + libmatroska v1.4.5
Attachments : poster

Video
ID : 1
Format : HEVC
Format/Info : High Efficiency Video Coding
Format profile : Main 10@L4.1@Main
Codec ID : V_MPEGH/ISO/HEVC
Duration : 1 h 30 min
Bit rate : 4 504 kb/s
Width : 1 920 pixels
Height : 1 080 pixels
Display aspect ratio : 16:9
Frame rate mode : Constant
Frame rate : 59.940 (60000/1001) FPS
Color space : YUV
Chroma subsampling : 4:2:0
Bit depth : 10 bits
Bits/(Pixel*Frame) : 0.036
Stream size : 2.85 GiB (94%)
Writing library : x265 2.3+33-0b7d54dbb71a87a0:[Windows][MSVC 1800][64 bit] 10bit: KG7x [x265.ru]
Encoding settings : cpuid=1173503 / frame-threads=2 / numa-pools=4 / wpp / no-pmode / no-pme / no-psnr / no-ssim / log-level=2 / input-csp=1 / input-res=1920x1080 / interlace=0 / total-frames=325631 / level-idc=41 / high-tier=1 / uhd-bd=0 / ref=3 / no-allow-non-conformance / no-repeat-headers / annexb / no-aud / no-hrd / info / hash=0 / no-temporal-layers / open-gop / min-keyint=25 / keyint=250 / bframes=4 / b-adapt=2 / b-pyramid / bframe-bias=0 / rc-lookahead=20 / lookahead-slices=6 / scenecut=40 / no-intra-refresh / ctu=64 / min-cu-size=8 / no-rect / no-amp / max-tu-size=32 / tu-inter-depth=1 / tu-intra-depth=1 / limit-tu=0 / rdoq-level=0 / dynamic-rd=0.00 / no-ssim-rd / signhide / no-tskip / nr-intra=0 / nr-inter=0 / no-constrained-intra / strong-intra-smoothing / max-merge=2 / limit-refs=3 / no-limit-modes / me=1 / subme=2 / merange=57 / temporal-mvp / weightp / no-weightb / no-analyze-src-pics / deblock=0:0 / no-sao / no-sao-non-deblock / rd=3 / no-early-skip / no-rskip / no-fast-intra / no-tskip-fast / no-cu-lossless / no-b-intra / rdpenalty=0 / psy-rd=4.00 / psy-rdoq=0.00 / no-rd-refine / analysis-mode=0 / no-lossless / cbqpoffs=0 / crqpoffs=0 / rc=abr / bitrate=4500 / qcomp=0.60 / qpstep=1 / stats-write=0 / stats-read=2 / cplxblur=20.0 / qblur=0.5 / ipratio=1.10 / pbratio=1.00 / aq-mode=0 / aq-strength=0.00 / no-cutree / zone-count=0 / no-strict-cbr / qg-size=64 / rc-grain / qpmax=69 / qpmin=0 / sar=1 / overscan=0 / videoformat=5 / range=0 / colorprim=2 / transfer=2 / colormatrix=2 / chromaloc=0 / display-window=0 / max-cll=0,0 / min-luma=0 / max-luma=1023 / log2-max-poc-lsb=8 / vui-timing-info / vui-hrd-info / slices=1 / opt-qp-pps / opt-ref-list-length-pps / no-multi-pass-opt-rps / scenecut-bias=0.05 / no-opt-cu-delta-qp / no-aq-motion / no-hdr / no-hdr-opt / refine-level=5 / no-limit-sao
Default : Yes
Forced : No

Audio
ID : 2
Format : AC-3
Format/Info : Audio Coding 3
Commercial name : Dolby Digital
Codec ID : A_AC3
Duration : 1 h 30 min
Bit rate mode : Constant
Bit rate : 256 kb/s
Channel(s) : 2 channels
Channel layout : L R
Sampling rate : 48.0 kHz
Frame rate : 31.250 FPS (1536 SPF)
Compression mode : Lossy
Delay relative to video : 4 s 500 ms
Stream size : 166 MiB (5%)
Title : Многоголосый закадровый, R5
Language : Russian
Service kind : Complete Main
Default : Yes
Forced : No

Text
ID : 3
Format : PGS
Muxing mode : zlib
Codec ID : S_HDMV/PGS
Codec ID/Info : Picture based subtitle format used on BDs/HD-DVDs
Duration : 1 h 26 min
Bit rate : 11.9 kb/s
Count of elements : 1016
Stream size : 7.39 MiB (0%)
Title : Русские (full)
Language : Russian
Default : No
Forced : No

piratbit.org



Скачать Нарушая запреты через торрент https://funkyimg.com/i/35XuQ.jpg Скачать фильм Нарушая запреты через торрент бесплантно в хорошем качестве Описание: Карла Борин молода, сексуальна и полна желаний. Одно из них — освоить английский язык. Для полного погружения в среду Карла ... 10 10 5
Торрент: Зарегистрирован [2020-06-27 12:02] · скачан: 215 раз
Статус: √ проверено
Размер: 3.02 GB
Как cкачать? Как скачать Нарушая запреты через торрент | qTorrent

% Раздел Тема Автор DL S | L
Порно фильмы HD [ 13.89 GB ] Нарушая запреты / Trasgredire [1999 эротика BD-Remux многоголосый ] 19alexei87 Скачать
1 | 0
Эротические и Документальные фильмы [ 1.37 GB ] Нарушая запреты / Trasgredire [1999 эротика DVDRip MVO лицензия] ValeraTerechenko Скачать
2 | 0

28-11-2019 20:33  

Отключить всю рекламу на сайте

28-06-2020 17:43 Нарушая запреты Скачать торрент  

С голой попой на постере! ПОЗОР!piratbit.org



    Дорогой пользователь! Огромная просьба, поблагодарите релизера, оцените раздачу и оставьте свои комментарий, если Вы скачали Нарушая запреты через торрент бесплатно! Внесите свою лепту в развитие PiratBit!
    Комментировать посты могут только пользователи прошедшие не сложную регистрацию
    Показать сообщения:    

    Нарушая запреты через торрент
    Скачать бесплатно Нарушая запреты
    Нарушая запреты скачать торрент
    Нарушая запреты смотреть онлайн
    Cкачать фильм Нарушая запреты бесплатно
    Нарушая запреты скачать торрент в хорошем качестве
    Нарушая запреты смотреть онлайн бесплатно в хорошем качестве


    Вы не можете начинать темы
    Вы не можете отвечать на сообщения
    Вы не можете редактировать свои сообщения
    Вы не можете удалять свои сообщения
    Вы не можете голосовать в опросах
    Вы не можете прикреплять файлы к сообщениям
    Вы можете скачивать файлы