Ссылка на приватное зеркало всего за 1$. Внимание количество ограничено!!!

iTunes

iTunes

iTunes

1

iTunes

iTunes

iTunes

iTunes

iTunes

30
pack

$ от Little Big

ВАЖНО

!!Акция!!

Alien_RageХит недели

RePack

Resident Evil 21

ИГРА 18+

pack

RePack

jed

!!Акция!!

Alien_Rage

RePack

fifa19

RePack

Assassins Creed: Odyssey

RePack

NEED FOR SPEED™ PAYBACK

4 сезон

9 сезон

Бесстыжие 9 сезон

Все сериалы

все сериалы на PB.wtf

RePack

FAR CRY 5
  

Team Команда «А» / The A-Team (Расширенная версия / Extended Cut) (Джо Карнахан) [2010 г., боевик, триллер, комедия, приключения., BDRip - HEVC 1080p 10 bit 60 FPS, Дубляж] piratbit.org

Team Команда «А» через торрент piratbit.org

Раздают: 5 [ 0 KB/s ]
Размер: 4.62 GB | Добавлен: 15 д. назад | Торрент скачан:98 раз
Скачать  

27-06-2020 17:15 Team Команда «А» Скачать торрент  

Команда «А» / The A-TeamГод выпуска: 2010
Страна: США, Великобритания
Жанр: боевик, триллер, комедия, приключения.
Продолжительность: 2:13:34
Перевод: Дубляж
Субтитры: Русские (Full)

Режиссер: Джо Карнахан

Бюджет: $110 000 000
Премьера в мире: 3 июня 2010

rating

В ролях: Лиам Нисон, Брэдли Купер, Шарлто Копли, Куинтон Джексон, Джессика Бил, Патрик Уилсон, Джералд МакРэйни, Генри Черни, Юл Васкес, Брайан Блум

Описание: Группа ветеранов войны в Ираке, несправедливо обвиненных в преступлении, пытается найти истинных виновников и вернуть себе честное имя.

Качество: BDRip 1080p / 60 FPS
Формат: MKV
Видео кодек: H.265
Аудио кодек: AC3
Видео: V_MPEGH/ISO/HEVC; 1920x816 (2.35:1); 4503 Kbps; 59,940 fps; 0,048 bpp
Аудио: русский; AC3; 448 Kbps; CBR; 6 ch

Релиз от: DD2D3
скриншот   скриншот   скриншот   скриншот   скриншот   скриншот   скриншот  

General
Unique ID : 185970768544766491287484862485470174310 (0x8BE8AACD1A1947028C64076FF758DC66)
Complete name : D:\Команда «А» - The A-Team (Расширенная версия) BDRip - HEVC 1080p 10 bit 60 FPS.mkv
Format : Matroska
Format version : Version 4
File size : 4.62 GiB
Duration : 2 h 13 min
Overall bit rate : 4 957 kb/s
Movie name : Rip by DD2D3
Encoded date : UTC 2020-06-27 13:00:18
Writing application : mkvmerge v10.0.0 ('To Drown In You') 32bit
Writing library : libebml v1.3.4 + libmatroska v1.4.5
Attachments : poster

Video
ID : 1
Format : HEVC
Format/Info : High Efficiency Video Coding
Format profile : Main 10@L4.1@Main
Codec ID : V_MPEGH/ISO/HEVC
Duration : 2 h 13 min
Bit rate : 4 504 kb/s
Width : 1 920 pixels
Height : 816 pixels
Display aspect ratio : 2.35:1
Frame rate mode : Constant
Frame rate : 59.940 (60000/1001) FPS
Color space : YUV
Chroma subsampling : 4:2:0
Bit depth : 10 bits
Bits/(Pixel*Frame) : 0.048
Stream size : 4.20 GiB (91%)
Writing library : x265 2.3+33-0b7d54dbb71a87a0:[Windows][MSVC 1800][64 bit] 10bit: KG7x [x265.ru]
Encoding settings : cpuid=1173503 / frame-threads=2 / numa-pools=4 / wpp / no-pmode / no-pme / no-psnr / no-ssim / log-level=2 / input-csp=1 / input-res=1920x816 / interlace=0 / total-frames=480346 / level-idc=41 / high-tier=1 / uhd-bd=0 / ref=3 / no-allow-non-conformance / no-repeat-headers / annexb / no-aud / no-hrd / info / hash=0 / no-temporal-layers / open-gop / min-keyint=25 / keyint=250 / bframes=4 / b-adapt=2 / b-pyramid / bframe-bias=0 / rc-lookahead=20 / lookahead-slices=5 / scenecut=40 / no-intra-refresh / ctu=64 / min-cu-size=8 / no-rect / no-amp / max-tu-size=32 / tu-inter-depth=1 / tu-intra-depth=1 / limit-tu=0 / rdoq-level=0 / dynamic-rd=0.00 / no-ssim-rd / signhide / no-tskip / nr-intra=0 / nr-inter=0 / no-constrained-intra / strong-intra-smoothing / max-merge=2 / limit-refs=3 / no-limit-modes / me=1 / subme=2 / merange=57 / temporal-mvp / weightp / no-weightb / no-analyze-src-pics / deblock=0:0 / no-sao / no-sao-non-deblock / rd=3 / no-early-skip / no-rskip / no-fast-intra / no-tskip-fast / no-cu-lossless / no-b-intra / rdpenalty=0 / psy-rd=4.00 / psy-rdoq=0.00 / no-rd-refine / analysis-mode=0 / no-lossless / cbqpoffs=0 / crqpoffs=0 / rc=abr / bitrate=4500 / qcomp=0.60 / qpstep=1 / stats-write=0 / stats-read=2 / cplxblur=20.0 / qblur=0.5 / ipratio=1.10 / pbratio=1.00 / aq-mode=0 / aq-strength=0.00 / no-cutree / zone-count=0 / no-strict-cbr / qg-size=64 / rc-grain / qpmax=69 / qpmin=0 / sar=1 / overscan=0 / videoformat=5 / range=0 / colorprim=2 / transfer=2 / colormatrix=2 / chromaloc=0 / display-window=0 / max-cll=0,0 / min-luma=0 / max-luma=1023 / log2-max-poc-lsb=8 / vui-timing-info / vui-hrd-info / slices=1 / opt-qp-pps / opt-ref-list-length-pps / no-multi-pass-opt-rps / scenecut-bias=0.05 / no-opt-cu-delta-qp / no-aq-motion / no-hdr / no-hdr-opt / refine-level=5 / no-limit-sao
Default : Yes
Forced : No

Audio
ID : 2
Format : AC-3
Format/Info : Audio Coding 3
Commercial name : Dolby Digital
Codec ID : A_AC3
Duration : 2 h 13 min
Bit rate mode : Constant
Bit rate : 448 kb/s
Channel(s) : 6 channels
Channel layout : L R C LFE Ls Rs
Sampling rate : 48.0 kHz
Frame rate : 31.250 FPS (1536 SPF)
Compression mode : Lossy
Stream size : 428 MiB (9%)
Title : Дубляж
Language : Russian
Service kind : Complete Main
Default : Yes
Forced : No

Text
ID : 3
Format : UTF-8
Codec ID : S_TEXT/UTF8
Codec ID/Info : UTF-8 Plain Text
Duration : 2 h 12 min
Bit rate : 123 b/s
Count of elements : 2014
Stream size : 120 KiB (0%)
Title : Rus Full
Language : Russian
Default : No
Forced : No

Menu
00:00:00.000 : :Gringo in Mexico
00:05:17.399 : :All Tyred Up
00:13:31.268 : :Mad Dog
00:21:10.769 : :80 Missions Later
00:26:32.340 : :Frat Boys with Trigger Fingers
00:37:42.802 : :The Plan
00:45:23.554 : :Plan Blows Apart
00:49:30.257 : :6 Months of Prison
00:56:53.868 : :Jamming the Signal
01:02:40.548 : :Movie Time
01:09:43.053 : :Tank Turbulence
01:15:19.639 : :Which Way to Berlin?
01:23:06.356 : :The Transaction
01:28:54.578 : :I Trust You
01:35:56.834 : :Exactly Like Call of Duty
01:38:35.951 : :Give Me 20 Minutes
01:43:12.519 : :Ba the Banana
01:49:42.825 : :Showtime
01:57:19.573 : :Looking All Over for You
02:07:00.654 : :End Credits

piratbit.org



Скачать Team Команда «А» через торрент https://funkyimg.com/i/35XPR.jpg Скачать фильм Team Команда «А» через торрент бесплантно в хорошем качестве Описание: Группа ветеранов войны в Ираке, несправедливо обвиненных в преступлении, пытается найти истинных виновников и вернуть себе ... 10 10 9
Торрент: Зарегистрирован [2020-06-27 17:15] · скачан: 98 раз
Статус: √ проверено
Размер: 4.62 GB
Как cкачать? Как скачать Team Команда «А» через торрент | qTorrent

% Раздел Тема Автор DL S | L
Зарубежные сериалы [ 71.54 GB ] Команда «А» / The A-Team / Сезон: 1-5 из 5 / Серии: 1-98 из 98 [1983-1987 военная HDRip] MVO [ДТВ] bober100 Скачать
1 | 0
T Релизы по Парсеру [Игры, Сериалы и Фильмы и другое...] [ 745 MB ] Команда «А» / The A-Team [2010 BDRip] [Theatrical Cut] Dub sanekbest1 Скачать
1 | 0
Фильмы [HD 720p, 1080p] (Хороший звук DUB, MVO) [ 7.95 GB ] Команда «А» / The A-Team [2010 BDRip 720p] DUB AVO potroks Скачать
1 | 0
Фильмы [HD 720p, 1080p] (Хороший звук DUB, MVO) [ 13.33 GB ] Команда «А» / The A-Team [2010 BDRip 1080p от _denis_100 / NNNB] DUB MVO 3xAVO VO + Original + Sub _denis_100 Скачать
3 | 0
Фильмы 2010 [ 1.46 GB ] Команда `А` / A-Team The [2010 ... HDRip] Venxxx Скачать
1 | 0
Порно фильмы с русским переводом [ 1.44 GB ] Команда «А» / The A-Team: XXX A Parody [2010 Feature DVDRip Оригинал] Pir@tya2010 Скачать
1 | 0
Фильмы [HD 720p, 1080p] (Хороший звук DUB, MVO) [ 11.54 GB ] Команда «А» / The A-Team [2010 BDRip 1080p ] Бумер Скачать
1 | 0

28-11-2019 20:33  

Отключить всю рекламу на сайте

    Дорогой пользователь! Огромная просьба, поблагодарите релизера, оцените раздачу и оставьте свои комментарий, если Вы скачали Team Команда «А» через торрент бесплатно! Внесите свою лепту в развитие PiratBit!
    Комментировать посты могут только пользователи прошедшие не сложную регистрацию
    Показать сообщения:    

    Team Команда «А» через торрент
    Скачать бесплатно Team Команда «А»
    Team Команда «А» скачать торрент
    Team Команда «А» смотреть онлайн
    Cкачать фильм Team Команда «А» бесплатно
    Team Команда «А» скачать торрент в хорошем качестве
    Team Команда «А» смотреть онлайн бесплатно в хорошем качестве


    Вы не можете начинать темы
    Вы не можете отвечать на сообщения
    Вы не можете редактировать свои сообщения
    Вы не можете удалять свои сообщения
    Вы не можете голосовать в опросах
    Вы не можете прикреплять файлы к сообщениям
    Вы можете скачивать файлы