Ссылка на приватное зеркало всего за 1$. Внимание количество ограничено!!!

iTunes

iTunes

iTunes

1

iTunes

iTunes

iTunes

iTunes

iTunes

30
pack

$ от Little Big

ВАЖНО

!!Акция!!

Alien_RageХит недели

RePack

Resident Evil 21

ИГРА 18+

pack

RePack

jed

!!Акция!!

Alien_Rage

RePack

fifa19

RePack

Assassins Creed: Odyssey

RePack

NEED FOR SPEED™ PAYBACK

4 сезон

9 сезон

Бесстыжие 9 сезон

Все сериалы

все сериалы на PB.wtf

RePack

FAR CRY 5
  

Хищные птицы: Потрясающая история Харли Квинн / Birds of Prey: And the Fantabulous Emancipation of One Harley Quinn (Кэти Янь) [2020 г., боевик, криминал, комедия., BDRip 1080p / 60 FPS, Дубляж iTunes] piratbit.org

Хищные птицы: Потрясающая история Харли Квинн через торрент piratbit.org

Раздают: 1 [ 0 KB/s ]
Размер: 3.34 GB | Добавлен: 14 д. назад | Торрент скачан:39 раз
Скачать  

28-06-2020 11:38 Хищные птицы: Потрясающая история Харли Квинн Скачать торрент  

Хищные птицы: Потрясающая история Харли Квинн / Birds of Prey: And the Fantabulous Emancipation of One Harley QuinnГод выпуска: 2020
Страна: США
Жанр: боевик, криминал, комедия.
Продолжительность: 1:48:54
Перевод: Дубляж iTunes
Субтитры: Русские (Full)

Режиссер: Кэти Янь

Бюджет: $84 500 000
Премьера в мире: 25 января 2020.

rating

В ролях: Марго Робби, Джерни Смоллетт, Мэри Элизабет Уинстэд, Рози Перес, Элла Джей Баско, Юэн Макгрегор, Крис Мессина, Бояна Новакович, Али Вонг, Дэвид Ури

Описание: Харли Квинн рассталась с Джокером и через некоторое время сообщила об этом всему Готэму, взорвав тот самый химзавод. Девушка больше не тоскует по несостоявшимся отношениям — ей некогда, так как она также потеряла неприкосновенность, и теперь за ней охотятся разной степени криминализованности граждане, желающие отомстить. А в это время ставший крёстным отцом Готема Роман Сайонис очень жаждет вернуть пропавший бриллиант, который стащила у его подручного малолетняя карманница.

Качество: BDRip 1080p / 60 FPS
Формат: MKV
Видео кодек: H.265
Аудио кодек: AC3
Видео: V_MPEGH/ISO/HEVC; 1920x804 (2.40:1); 4002 Kbps; 59,940 fps; 0,043 bpp
Аудио: русский; AC3; 384 Kbps; CBR; 6 ch

Релиз от: DD2D3
скриншот   скриншот   скриншот  

скриншот   скриншот   скриншот  

скриншот  

General
Unique ID : 214395521114781422224410625781509923986 (0xA14B134DCA7E79C2AD0E14F632C42492)
Complete name : D:\Хищные птицы Потрясающая история Харли Квинн - Birds of Prey And the Fantabulous Emancipation of One Harley Quinn (2020) BDRip - HEVC 1080p 10 bit 60 FPS.mkv
Format : Matroska
Format version : Version 4
File size : 3.68 GiB
Duration : 1 h 48 min
Overall bit rate : 4 842 kb/s
Movie name : Rip by from DD2D3
Encoded date : UTC 2020-05-12 12:37:11
Writing application : mkvmerge v10.0.0 ('To Drown In You') 32bit
Writing library : libebml v1.3.4 + libmatroska v1.4.5
Attachments : poster

Video
ID : 1
Format : HEVC
Format/Info : High Efficiency Video Coding
Format profile : Main@L4.1@Main
Codec ID : V_MPEGH/ISO/HEVC
Duration : 1 h 48 min
Bit rate : 4 002 kb/s
Width : 1 920 pixels
Height : 804 pixels
Display aspect ratio : 2.40:1
Frame rate mode : Constant
Frame rate : 59.940 (60000/1001) FPS
Color space : YUV
Chroma subsampling : 4:2:0
Bit depth : 8 bits
Bits/(Pixel*Frame) : 0.043
Stream size : 3.04 GiB (83%)
Writing library : x265 2.3+33-0b7d54dbb71a87a0:[Windows][MSVC 1800][64 bit] 8bit: KG7x [x265.ru]
Encoding settings : cpuid=1173503 / frame-threads=2 / numa-pools=4 / wpp / no-pmode / no-pme / no-psnr / no-ssim / log-level=2 / input-csp=1 / input-res=1920x804 / interlace=0 / total-frames=391658 / level-idc=41 / high-tier=1 / uhd-bd=0 / ref=3 / no-allow-non-conformance / no-repeat-headers / annexb / no-aud / no-hrd / info / hash=0 / no-temporal-layers / open-gop / min-keyint=25 / keyint=250 / bframes=4 / b-adapt=2 / b-pyramid / bframe-bias=0 / rc-lookahead=20 / lookahead-slices=5 / scenecut=40 / no-intra-refresh / ctu=64 / min-cu-size=8 / no-rect / no-amp / max-tu-size=32 / tu-inter-depth=1 / tu-intra-depth=1 / limit-tu=0 / rdoq-level=0 / dynamic-rd=0.00 / no-ssim-rd / signhide / no-tskip / nr-intra=0 / nr-inter=0 / no-constrained-intra / strong-intra-smoothing / max-merge=2 / limit-refs=3 / no-limit-modes / me=1 / subme=2 / merange=57 / temporal-mvp / weightp / no-weightb / no-analyze-src-pics / deblock=0:0 / no-sao / no-sao-non-deblock / rd=3 / no-early-skip / no-rskip / no-fast-intra / no-tskip-fast / no-cu-lossless / no-b-intra / rdpenalty=0 / psy-rd=4.00 / psy-rdoq=0.00 / no-rd-refine / analysis-mode=0 / no-lossless / cbqpoffs=0 / crqpoffs=0 / rc=abr / bitrate=4000 / qcomp=0.60 / qpstep=1 / stats-write=0 / stats-read=2 / cplxblur=20.0 / qblur=0.5 / ipratio=1.10 / pbratio=1.00 / aq-mode=0 / aq-strength=0.00 / no-cutree / zone-count=0 / no-strict-cbr / qg-size=64 / rc-grain / qpmax=69 / qpmin=0 / sar=1 / overscan=0 / videoformat=5 / range=0 / colorprim=2 / transfer=2 / colormatrix=2 / chromaloc=0 / display-window=0 / max-cll=0,0 / min-luma=0 / max-luma=255 / log2-max-poc-lsb=8 / vui-timing-info / vui-hrd-info / slices=1 / opt-qp-pps / opt-ref-list-length-pps / no-multi-pass-opt-rps / scenecut-bias=0.05 / no-opt-cu-delta-qp / no-aq-motion / no-hdr / no-hdr-opt / refine-level=5 / no-limit-sao
Default : Yes
Forced : No

Audio #1
ID : 2
Format : AC-3
Format/Info : Audio Coding 3
Commercial name : Dolby Digital
Codec ID : A_AC3
Duration : 1 h 48 min
Bit rate mode : Constant
Bit rate : 384 kb/s
Channel(s) : 6 channels
Channel layout : L R C LFE Ls Rs
Sampling rate : 48.0 kHz
Frame rate : 31.250 FPS (1536 SPF)
Compression mode : Lossy
Stream size : 299 MiB (8%)
Title : iTunes
Language : Russian
Service kind : Complete Main
Default : Yes
Forced : Yes

Audio #2
ID : 3
Format : AC-3
Format/Info : Audio Coding 3
Commercial name : Dolby Digital
Codec ID : A_AC3
Duration : 1 h 48 min
Bit rate mode : Constant
Bit rate : 448 kb/s
Channel(s) : 6 channels
Channel layout : L R C LFE Ls Rs
Sampling rate : 48.0 kHz
Frame rate : 31.250 FPS (1536 SPF)
Compression mode : Lossy
Stream size : 349 MiB (9%)
Title : HDRezka Studio
Language : Russian
Service kind : Complete Main
Default : No
Forced : No

Text
ID : 4
Format : UTF-8
Codec ID : S_TEXT/UTF8
Codec ID/Info : UTF-8 Plain Text
Duration : 1 h 48 min
Bit rate : 91 b/s
Count of elements : 1335
Stream size : 72.8 KiB (0%)
Title : Full
Language : Russian
Default : No
Forced : No

Menu
00:00:00.000 : en:Chapter 1
00:08:08.446 : en:Chapter 2
00:17:53.739 : en:Chapter 3
00:27:11.839 : en:Chapter 4
00:35:40.805 : en:Chapter 5
00:44:48.352 : en:Chapter 6
00:53:43.387 : en:Chapter 7
01:01:15.547 : en:Chapter 8
01:10:55.960 : en:Chapter 9
01:19:06.492 : en:Chapter 10
01:24:28.146 : en:Chapter 11
01:34:27.996 : en:Chapter 12
01:41:26.998 : en:Chapter 13

piratbit.org



Скачать Хищные птицы: Потрясающая история Харли Квинн через торрент https://funkyimg.com/i/35YrK.jpg Скачать фильм Хищные птицы: Потрясающая история Харли Квинн через торрент бесплантно в хорошем качестве Описание: Харли Квинн рассталась с Джокером и через некоторое время сообщила об этом всему Готэму, взорвав тот самый химзавод. Девушка ... 10 10 4
Торрент: Зарегистрирован [2020-06-28 11:38] · скачан: 39 раз
Статус: √ проверено
Размер: 3.34 GB
Как cкачать? Как скачать Хищные птицы: Потрясающая история Харли Квинн через торрент | qTorrent

% Раздел Тема Автор DL S | L
Фильмы 2019-2020 [DVDrip, WEB-DLRip, HDrip] (DUB, MVO) [ 2.13 GB ] Хищные птицы: Потрясающая история Харли Квинн / Birds of Prey: And the Fantabulous Emancipation of One Harley Quinn [2020 BDRip] - Twi7ter Скачать
80 | 3
Ultra HD (UHD: 2K, 4K, 8K) — видео сверхвысокой чёткости [ 30.54 GB ] Хищные птицы: Потрясающая история Харли Квинн / Birds of Prey: And the Fantabulous Emancipation of One Harley Quinn [2020 UHD BDRip 2160p] DUB +MVO [HDRezka Studio] bober100 Скачать
2 | 0
Ultra HD (UHD: 2K, 4K, 8K) — видео сверхвысокой чёткости [ 52.95 GB ] Хищные птицы: Потрясающая история Харли Квинн / Birds of Prey: And the Fantabulous Emancipation of One Harley Quinn [2020 UHD BDRemux 2160p ] DUB +MVO [HDRezka Studio] bober100 Скачать
3 | 0
Ultra HD (UHD: 2K, 4K, 8K) — видео сверхвысокой чёткости [ 45.88 GB ] Хищные птицы: Потрясающая история Харли Квинн / Birds of Prey: And the Fantabulous Emancipation of One Harley Quinn [2020 UHD BDRemux 2160p ] bober100 Скачать
3 | 0
Ultra HD (UHD: 2K, 4K, 8K) — видео сверхвысокой чёткости [ 49.66 GB ] Хищные птицы: Потрясающая история Харли Квинн / Birds of Prey: And the Fantabulous Emancipation of One Harley Quinn [2020 UHD BDRemux 2160p] DUB +MVO [HDRezka Studio] bober100 Скачать
1 | 0
Фильмы 2019-2020 [DVDrip, WEB-DLRip, HDrip] (DUB, MVO) [ 1.41 GB ] Хищные птицы: Потрясающая история Харли Квинн / Birds of Prey: And the Fantabulous Emancipation of One Harley Quinn [2020 BDRip] - Twi7ter Скачать
41 | 3
Фильмы [HD 720p, 1080p] (Хороший звук DUB, MVO) [ 4.32 GB ] Хищные птицы: Потрясающая история Харли Квинн / Birds of Prey: And the Fantabulous Emancipation of One Harley Quinn [2020 BDRip 720p] DUB bober100 Скачать
9 | 0

28-11-2019 20:33  

Отключить всю рекламу на сайте

28-06-2020 12:07 Хищные птицы: Потрясающая история Харли Квинн Скачать торрент  

конченый фильм.piratbit.org



    Дорогой пользователь! Огромная просьба, поблагодарите релизера, оцените раздачу и оставьте свои комментарий, если Вы скачали Хищные птицы: Потрясающая история Харли Квинн через торрент бесплатно! Внесите свою лепту в развитие PiratBit!
    Комментировать посты могут только пользователи прошедшие не сложную регистрацию
    Показать сообщения:    

    Хищные птицы: Потрясающая история Харли Квинн через торрент
    Скачать бесплатно Хищные птицы: Потрясающая история Харли Квинн
    Хищные птицы: Потрясающая история Харли Квинн скачать торрент
    Хищные птицы: Потрясающая история Харли Квинн смотреть онлайн
    Cкачать фильм Хищные птицы: Потрясающая история Харли Квинн бесплатно
    Хищные птицы: Потрясающая история Харли Квинн скачать торрент в хорошем качестве
    Хищные птицы: Потрясающая история Харли Квинн смотреть онлайн бесплатно в хорошем качестве


    Вы не можете начинать темы
    Вы не можете отвечать на сообщения
    Вы не можете редактировать свои сообщения
    Вы не можете удалять свои сообщения
    Вы не можете голосовать в опросах
    Вы не можете прикреплять файлы к сообщениям
    Вы можете скачивать файлы