Ссылка на приватное зеркало всего за 1$. Внимание количество ограничено!!!

iTunes

iTunes

iTunes

1

iTunes

iTunes

iTunes

iTunes

iTunes

30
pack

$ от Little Big

ВАЖНО

!!Акция!!

Alien_RageХит недели

RePack

Resident Evil 21

ИГРА 18+

pack

RePack

jed

!!Акция!!

Alien_Rage

RePack

fifa19

RePack

Assassins Creed: Odyssey

RePack

NEED FOR SPEED™ PAYBACK

4 сезон

9 сезон

Бесстыжие 9 сезон

Все сериалы

все сериалы на PB.wtf

RePack

FAR CRY 5
  

Солдаты / Soldier Boyz (Луи Морно) [1995 г., боевик, триллер, драма, BDRip 720p / 60 FPS, Профессиональный (двухголосый)] от R.G. HD-Films piratbit.org

Солдаты через торрент piratbit.org

Раздают: 4 [ 0 KB/s ]
Размер: 3.13 GB | Добавлен: 5 д. назад | Торрент скачан:21 раз
Скачать  

28-06-2020 17:37 Солдаты Скачать торрент  

Солдаты / Soldier Boyz
Год выпуска: 1995
Страна: США
Жанр: боевик, триллер, драма
Продолжительность: 01:29:20
Перевод: Профессиональный (двухголосый)

Режиссер: Луи Морно

Премьера в мире: 18 октября 1995

rating

В ролях: Майкл Дудикофф, Кэри-Хироюки Тагава, Тайрин Тернер, Жаклин Обрадор, Дэвид Барри Грэй, Чэннон Роу, Деметриус Наварро, Седрик Террелл, Хэнк Брандт, Дон Страуд, Джеремайя Биркетт, Николь Хансен, Рене Л. Морено, Хиллари Мэтьюз, Зен Геснер, Чак Эронберг, Джордж Кристи, Дэвид Коплан, Дина Падилья

Описание: Возле вьетнамской границы национальным фронтом «освобождения» во главе с бандитом Вином Мо сбит самолет ООН, доставлявший гуманитарную помощь. В живых осталась только Габриэлла, дочь очень богатого бизнесмена. А спасти ее может только майор Толивер, находящийся в данный момент в тюрьме, куда этот промышленник и приходит вместе с отставным генералом и делает выгодное предложение. Для того, чтобы выполнить это самоубийственное задание, Толивер набирает уголовников из этой же тюрьмы, чтобы не рисковать жизнями «нормальных» ребят...

Качество: BDRip 720p / 60 FPS
Формат: MKV
Видео кодек: H.264
Аудио кодек: AC3
Видео: x264, 1280 x 696 ( 1,85:1 ), 4832 kbps, 60,000 fps, ( 0.090 bpp)
Аудио#1: Русский, AC-3, 48.0 KHz, 2 ch, 192 Kbps DVO ( С.В.Кадр )
Релиз от:

скриншот   скриншот   скриншот   скриншот   скриншот   скриншот  Автор рипа: slaventi-69
x264 [info]: frame I:1767 Avg QP:18.18 size: 61397
x264 [info]: frame P:82486 Avg QP:19.41 size: 22366
x264 [info]: frame B:285368 Avg QP:21.62 size: 4022
x264 [info]: consecutive B-frames: 1.2% 2.4% 6.1% 17.0% 55.7% 17.5%


Общее
Уникальный идентификатор : 176588472800170163239085338198983934667 (0x84D9B3E813686BFE9FF95759BC7182CB)
Полное имя : F:\Soldier.Boyz.(1995).BDRip.720p.(60 Fps).mkv
Формат : Matroska
Версия формата : Version 4
Размер файла : 3,13 Гбайт
Продолжительность : 1 ч. 29 м.
Общий поток : 5027 Кбит/сек
Название фильма : Солдаты / Soldier Boyz (1995) BDRip 720p (60 Fps)
Дата кодирования : UTC 2020-06-28 16:22:44
Программа кодирования : mkvmerge v12.0.0 ('Trust / Lust') 64bit
Библиотека кодирования : libebml v1.3.4 + libmatroska v1.4.5

Видео
Идентификатор : 1
Формат : AVC
Формат/Информация : Advanced Video Codec
Профиль формата : High@L4.1
Настройки формата : CABAC / 8 Ref Frames
Параметр CABAC формата : Да
Параметр RefFrames формата : 8 кадров
Идентификатор кодека : V_MPEG4/ISO/AVC
Продолжительность : 1 ч. 29 м.
Битрейт : 4832 Кбит/сек
Ширина : 1280 пикселей
Высота : 696 пикселей
Соотношение сторон : 1,85:1
Режим частоты кадров : Постоянный
Частота кадров : 60,000 кадров/сек
Цветовое пространство : YUV
Субдискретизация насыщенности : 4:2:0
Битовая глубина : 8 бит
Тип развёртки : Прогрессивная
Бит/(Пиксели*Кадры) : 0.090
Размер потока : 3,01 Гбайт (96%)
Заголовок : slaventi-69 ( R.G. HD-Films | 60 fps )
Библиотека кодирования : x264 core 130 r2273 b3065e6
Настройки программы : cabac=1 / ref=8 / deblock=1:0:0 / analyse=0x3:0x113 / me=umh / subme=9 / psy=1 / psy_rd=1.00:0.00 / mixed_ref=1 / me_range=28 / chroma_me=1 / trellis=2 / 8x8dct=1 / cqm=0 / deadzone=21,11 / fast_pskip=0 / chroma_qp_offset=-2 / threads=4 / lookahead_threads=2 / sliced_threads=0 / nr=0 / decimate=1 / interlaced=0 / bluray_compat=0 / constrained_intra=0 / bframes=5 / b_pyramid=2 / b_adapt=2 / b_bias=0 / direct=3 / weightb=1 / open_gop=0 / weightp=2 / keyint=600 / keyint_min=23 / scenecut=40 / intra_refresh=0 / rc=crf / mbtree=0 / crf=18.0 / qcomp=0.60 / qpmin=0 / qpmax=69 / qpstep=4 / ip_ratio=1.40 / pb_ratio=1.30 / aq=1:1.00
Язык : English
Default : Да
Forced : Нет

Аудио
Идентификатор : 2
Формат : AC-3
Формат/Информация : Audio Coding 3
Коммерческое название : Dolby Digital
Идентификатор кодека : A_AC3
Продолжительность : 1 ч. 29 м.
Вид битрейта : Постоянный
Битрейт : 192 Кбит/сек
Каналы : 2 канала
Channel layout : L R
Частота : 48,0 КГц
Частота кадров : 31,250 кадров/сек (1536 SPF)
Битовая глубина : 16 бит
Метод сжатия : С потерями
Размер потока : 123 Мбайт (4%)
Заголовок : DVO ( С.В.Кадр )
Язык : Russian
ServiceKind/String : Complete Main
Default : Да
Forced : Нет

Меню
00:00:00.000 : :Chapter 00
00:15:45.986 : :Chapter 01
00:26:18.743 : :Chapter 02
00:39:31.494 : :Chapter 03
00:47:36.854 : :Chapter 04
00:58:52.320 : :Chapter 05
01:09:25.452 : :Chapter 06
01:22:08.965 : :Chapter 07

Просьба к переливающим на другие сайты, в оформлении указывайте пожалуйста авторство группы R.G. HD-Films piratbit.org



Скачать Солдаты через торрент http://d.radikal.ru/d10/1901/35/ac05ca51f14c.png Скачать фильм Солдаты через торрент бесплантно в хорошем качестве Описание: Возле вьетнамской границы национальным фронтом «освобождения» во главе с бандитом Вином Мо сбит самолет ООН, доставлявший ... 10 10 6
Info! Золотая раздача, скачанное не засчитывается.
Торрент: Зарегистрирован [2020-06-28 17:37] · скачан: 21 раз
Статус: √ проверено
Размер: 3.13 GB
Как cкачать? Как скачать Солдаты через торрент | qTorrent

28-11-2019 20:33  

Отключить всю рекламу на сайте

28-06-2020 19:37 Солдаты Скачать торрент  

Спасибо за Золото.piratbit.org



28-06-2020 20:42 Солдаты Скачать торрент  

Спасибо превеликое за очередной классный боевичок 90-х!!! Люблю Миху Дудникова, лицензионная кассета с этим фильмом до сих пор в ящике лежит!!! Уже и видак давно накрылся, а она всё еще хранится. Никогда не думал, что всё это появится когда-нибудь в таком хорошем качестве и можно будет пересмотреть любимое кино в другой обстановке. Большая Вам благодарность от меня за сей релиз, нет больше слов!!!piratbit.org



    Дорогой пользователь! Огромная просьба, поблагодарите релизера, оцените раздачу и оставьте свои комментарий, если Вы скачали Солдаты через торрент бесплатно! Внесите свою лепту в развитие PiratBit!
    Комментировать посты могут только пользователи прошедшие не сложную регистрацию
    Показать сообщения:    

    Солдаты через торрент
    Скачать бесплатно Солдаты
    Солдаты скачать торрент
    Солдаты смотреть онлайн
    Cкачать фильм Солдаты бесплатно
    Солдаты скачать торрент в хорошем качестве
    Солдаты смотреть онлайн бесплатно в хорошем качестве


    Вы не можете начинать темы
    Вы не можете отвечать на сообщения
    Вы не можете редактировать свои сообщения
    Вы не можете удалять свои сообщения
    Вы не можете голосовать в опросах
    Вы не можете прикреплять файлы к сообщениям
    Вы можете скачивать файлы