Ссылка на приватное зеркало всего за 1$. Внимание количество ограничено!!!

iTunes

iTunes

iTunes

1

iTunes

iTunes

iTunes

iTunes

iTunes

30
pack

$ от Little Big

ВАЖНО

!!Акция!!

Alien_RageХит недели

RePack

Resident Evil 21

ИГРА 18+

pack

RePack

jed

!!Акция!!

Alien_Rage

RePack

fifa19

RePack

Assassins Creed: Odyssey

RePack

NEED FOR SPEED™ PAYBACK

4 сезон

9 сезон

Бесстыжие 9 сезон

Все сериалы

все сериалы на PB.wtf

RePack

FAR CRY 5
  

Страшилки / Creeped Out / Сезон: 1 / Серии: 1-13 из 13 (Стив Хьюз Макдональд, Брюс МакДональд) [2017, Комедия, фэнтези, WEB-DL 1080p] MVO [HDRezka Studio] piratbit.org

Страшилки через торрент piratbit.org

Раздают: 1 [ 0.6 KB/s ]
Размер: 15.7 GB | Добавлен: 7 д. назад | Торрент скачан:12 раз
Скачать  

29-06-2020 15:23 Страшилки Скачать торрент  

Страшилки | Creeped Out
Год выпуска: 2017
Страна: Великобритания
Жанр: Комедия, фэнтези
Продолжительность: ~ 00:25:00 (Серия)
Перевод: Профессиональный (многоголосый) | HDRezka Studio
Субтитры: отсутствуют

Режиссер: Стив Хьюз Макдональд, Брюс МакДональд

rating

В ролях: Аврора Акснес, Уильям Ромен, Джайден Каннателли, Майя Бастидас, Кэти Дуглас, Питер Лоунг, Виктория Даймонд, Кайл Харрисон Брейткопф, Кеана Бастидас, Аарон Гиберсон

Описание: Основные по главному герои этого телесериала - элементарные дети, которые порой сталкиваются с не поддающимися объяснению событиями в своей жизни. Ребята многого в страхе переживают, но жажда исследовательских работ и любопытство берут личное. Программный расчет "Страшилки" - это отличный сборник увлекательнейших исторических баек, которые в обязательном порядке придутся почитателям эпизодических хорроров. Любая новейшая серия - это отдельный сюжет, который так или иначе принудит наблюдающих посетителей как следует испугаться, а ведущих героев пошевелить мозгами над тем, стоит ли им проверять себя на надежность, отправляясь навстречу своим ужасам. "Страшилки"

Качество: WEB-DL 1080p
Формат: MKV

Видео: MPEG-4 AVC, ~ 5283 Кбит/с, 1920x1080
Аудио: Русский (AC3, 2 ch, 192 Кбит/с)
скриншот  скриншот  скриншот  скриншот  

Общее
Уникальный идентификатор : 159523070518036858061914189128149415482 (0x7803069CFFF98EDD7D19EF39BBF2B63A)
Полное имя : D:\Creeped.Out.2018.S01.1080p\Creeped.Out.S01E01.WEBRip.1080p.rus.2.0.HDREZKA.STUDIO.mkv
Формат : Matroska
Версия формата : Version 4 / Version 2
Размер файла : 1,00 Гбайт
Продолжительность : 26 м. 16 с.
Режим общего битрейта : Переменный
Общий поток : 5477 Кбит/сек
Дата кодирования : UTC 2020-06-27 02:47:07
Программа кодирования : mkvmerge v47.0.0 ('Black Flag') 64-bit
Библиотека кодирования : libebml v1.3.10 + libmatroska v1.5.2

Видео
Идентификатор : 1
Формат : AVC
Формат/Информация : Advanced Video Codec
Профиль формата : High@L4.1
Параметр CABAC формата : Да
Параметр RefFrames формата : 1 кадр
Идентификатор кодека : V_MPEG4/ISO/AVC
Продолжительность : 26 м. 16 с.
Вид битрейта : Переменный
Битрейт : 5283 Кбит/сек
Максимальный битрейт : 2000 Кбит/сек
Ширина : 1920 пикселей
Высота : 1080 пикселей
Соотношение сторон : 16:9
Режим частоты кадров : Постоянный
Частота кадров : 25,000 кадров/сек
Цветовое пространство : YUV
Субдискретизация насыщенности : 4:2:0
Битовая глубина : 8 бит
Тип развёртки : Прогрессивная
Бит/(Пиксели*Кадры) : 0.102
Размер потока : 993 Мбайт (96%)
Default : Да
Forced : Нет

Аудио
Идентификатор : 2
Формат : AC-3
Формат/Информация : Audio Coding 3
Расширение режима : CM (complete main)
Параметр Endianness формата : Big
Идентификатор кодека : A_AC3
Продолжительность : 26 м. 16 с.
Вид битрейта : Постоянный
Битрейт : 192 Кбит/сек
Каналы : 2 канала
Расположение каналов : Front: L R
Частота : 48,0 КГц
Частота кадров : 31,250 кадров/сек (1536 spf)
Метод сжатия : С потерями
Размер потока : 36,1 Мбайт (4%)
Язык : Russian
Default : Да
Forced : Нет

piratbit.org



Скачать Страшилки через торрент https://i112.fastpic.ru/big/2020/0629/5e/bb371c635d02a12dc67dc9fc8b4b9c5e.jpg Скачать фильм Страшилки через торрент бесплантно в хорошем качестве Описание: Основные по главному герои этого телесериала - элементарные дети, которые порой сталкиваются с не поддающимися объяснению ... 10 10 2
Торрент: Зарегистрирован [2020-06-29 15:23] · скачан: 12 раз
Статус: √ проверено
Размер: 15.7 GB
Как cкачать? Как скачать Страшилки через торрент | qTorrent

28-11-2019 20:33  

Отключить всю рекламу на сайте

    Дорогой пользователь! Огромная просьба, поблагодарите релизера, оцените раздачу и оставьте свои комментарий, если Вы скачали Страшилки через торрент бесплатно! Внесите свою лепту в развитие PiratBit!
    Комментировать посты могут только пользователи прошедшие не сложную регистрацию
    Показать сообщения:    

    Страшилки через торрент
    Скачать бесплатно Страшилки
    Страшилки скачать торрент
    Страшилки смотреть онлайн
    Cкачать фильм Страшилки бесплатно
    Страшилки скачать торрент в хорошем качестве
    Страшилки смотреть онлайн бесплатно в хорошем качестве


    Вы не можете начинать темы
    Вы не можете отвечать на сообщения
    Вы не можете редактировать свои сообщения
    Вы не можете удалять свои сообщения
    Вы не можете голосовать в опросах
    Вы не можете прикреплять файлы к сообщениям
    Вы можете скачивать файлы