Ссылка на приватное зеркало всего за 1$. Внимание количество ограничено!!!

iTunes

iTunes

iTunes

1

iTunes

iTunes

iTunes

iTunes

iTunes

30
pack

$ от Little Big

ВАЖНО

!!Акция!!

Alien_RageХит недели

RePack

Resident Evil 21

ИГРА 18+

pack

RePack

jed

!!Акция!!

Alien_Rage

RePack

fifa19

RePack

Assassins Creed: Odyssey

RePack

NEED FOR SPEED™ PAYBACK

4 сезон

9 сезон

Бесстыжие 9 сезон

Все сериалы

все сериалы на PB.wtf

RePack

FAR CRY 5
  

Ночные ястребы / Nighthawks (Брюс Мэлмат, Гэри Нельсон) [1981, боевик, триллер, криминал, BDRip 1080p] MVO+3xAVO+3xDVO piratbit.org

Ночные ястребы через торрент piratbit.org

Раздают: 1 [ 0 KB/s ]
Размер: 12.55 GB | Добавлен: 13 д. назад | Торрент скачан:37 раз
Скачать  

29-06-2020 18:27 Ночные ястребы Скачать торрент  

Ночные ястребы | Nighthawks
Год выпуска: 1981
Страна: США
Студия: Universal Pictures, Martin Poll Productions, The Production Company
Жанр: боевик, триллер, криминал
Продолжительность: 01:39:14
Перевод: Профессиональный (многоголосый), профессиональный (двуголосый), авторский (одноголосый).
Субтитры: Английские

Режиссер: Брюс Мэлмат, Гэри Нельсон

rating

В ролях: Сильвестр Сталлоне, Билли Ди Уильямс, Линдсэй Вагнер, Персис Хамбатта, Найджел Дэвенпорт, Рутгер Хауэр, Хилари Томпсон, Джо Спинелл, Уолтер Мэтьюз, Э. Брайан Дин, ...

Описание: Отчаянный сержант нью-йоркской полиции Дик Де Сильва привык ловить преступников в экстремальной ситуации «на живца», в роли которого всегда выступал он сам. Но «адреналиновой» службе приходит конец, после того, как героя переводят во вновь созданное антитеррористическое подразделение.
Однако скучать в новой должности Де Сильве не пришлось. В Нью-Йорке объявился самый разыскиваемой террорист на Земле — безжалостный убийца Хеймар Райнхардт, известный всему миру, как Вульфгар, который захватывает заложников прямо в воздухе, в вагончике фуникулера, следующего на Рузвельт — Айленд. Теперь самый бесстрашный коп должен будет сразиться с самым жестоким террористом!…

Качество: BDRip 1080p
Формат: MKV

Видео: 1916x1040, 16000 kbps, 23,976 fps
Аудио #1: AC-3, 2 ch, 192 kbps (Rus) - AVO Чадов Михаил Владимирович
Аудио #2: AC-3, 2 ch, 192 kbps (Rus) - MVO Н-Кино
Аудио #3: AC-3, 2 ch, 192 kbps (Rus) - DVO Премьер Видео Фильм
Аудио #4: AC-3, 2 ch, 192 kbps (Rus) - DVO НТВ+
Аудио #5: AC-3, 2 ch, 192 kbps (Rus) - DVO НТВ
Аудио #6: AC-3, 2 ch, 192 kbps (Rus) - AVO Гаврилов Андрей Юрьевич
Аудио #7: AC-3, 2 ch, 192 kbps (Rus) - AVO Михалёв Алексей Михайлович
Аудио #8: DTS, 2 ch, 768 kbps (Eng)
скриншот  скриншот  скриншот  скриншот  скриншот  

x264 [info]: frame I:722 Avg QP:21.09 size:184522
x264 [info]: frame P:24253 Avg QP:23.31 size:105823
x264 [info]: frame B:117790 Avg QP:24.51 size: 78118
x264 [info]: consecutive B-frames: 1.4% 1.8% 2.7% 11.0% 11.8% 26.2% 10.1% 5.3% 6.4% 7.1% 4.9% 2.7% 3.2% 4.2% 1.0%

Общее
Уникальный идентификатор : 200182223033958034886702643010887795172 (0x9699B19ABF6036A3AC6B55E98738C1E4)
Полное имя : Ночные ястребы (Nighthawks) 1981 BDRip 1080p.mkv
Формат : Matroska
Версия формата : Version 2
Размер файла : 12,6 Гбайт
Продолжительность : 1 ч. 39 м.
Общий поток : 18,1 Мбит/сек
Дата кодирования : UTC 2019-09-29 17:32:43
Программа кодирования : mkvmerge v4.0.0 ('The Stars were mine') сборка от Jun 6 2010 16:18:42
Библиотека кодирования : libebml v1.0.0 + libmatroska v1.0.0

Видео
Идентификатор : 1
Формат : AVC
Формат/Информация : Advanced Video Codec
Профиль формата : High@L4.1
Параметр CABAC формата : Да
Параметр ReFrames формата : 4 кадра
Идентификатор кодека : V_MPEG4/ISO/AVC
Продолжительность : 1 ч. 39 м.
Битрейт : 16,0 Мбит/сек
Ширина : 1916 пикселей
Высота : 1040 пикселей
Соотношение сторон : 1,85:1
Режим частоты кадров : Постоянный
Частота кадров : 23,976 (24000/1001) кадра/сек
Цветовое пространство : YUV
Субдискретизация насыщенности : 4:2:0
Битовая глубина : 8 бит
Тип развёртки : Прогрессивная
Бит/(Пиксели*Кадры) : 0.335
Размер потока : 10,8 Гбайт (86%)
Библиотека кодирования : x264 core 146 r2538 121396c
Настройки программы : cabac=1 / ref=4 / deblock=1:-1:-1 / analyse=0x3:0x133 / me=umh / subme=11 / psy=1 / psy_rd=1.10:0.16 / mixed_ref=1 / me_range=32 / chroma_me=1 / trellis=2 / 8x8dct=1 / cqm=0 / deadzone=21,11 / fast_pskip=0 / chroma_qp_offset=-3 / threads=12 / lookahead_threads=2 / sliced_threads=0 / nr=0 / decimate=0 / interlaced=0 / bluray_compat=0 / constrained_intra=0 / bframes=14 / b_pyramid=2 / b_adapt=2 / b_bias=0 / direct=3 / weightb=1 / open_gop=0 / weightp=2 / keyint=240 / keyint_min=23 / scenecut=40 / intra_refresh=0 / rc_lookahead=60 / rc=2pass / mbtree=1 / bitrate=16000 / ratetol=1.0 / qcomp=0.60 / qpmin=0 / qpmax=69 / qpstep=4 / cplxblur=20.0 / qblur=0.5 / vbv_maxrate=50000 / vbv_bufsize=62500 / nal_hrd=none / filler=0 / ip_ratio=1.40 / aq=1:0.90
Язык : English
Default : Нет
Forced : Нет

Аудио #1
Идентификатор : 2
Формат : AC-3
Формат/Информация : Audio Coding 3
Расширение режима : CM (complete main)
Параметр Endianness формата : Big
Идентификатор кодека : A_AC3
Продолжительность : 1 ч. 39 м.
Вид битрейта : Постоянный
Битрейт : 192 Кбит/сек
Каналы : 2 канала
Расположение каналов : Front: L R
Частота : 48,0 КГц
Частота кадров : 31,250 кадров/сек (1536 spf)
Метод сжатия : С потерями
Размер потока : 136 Мбайт (1%)
Заголовок : AVO Чадов Михаил Владимирович
Язык : Russian
Default : Нет
Forced : Нет

Аудио #2
Идентификатор : 3
Формат : AC-3
Формат/Информация : Audio Coding 3
Расширение режима : CM (complete main)
Параметр Endianness формата : Big
Идентификатор кодека : A_AC3
Продолжительность : 1 ч. 39 м.
Вид битрейта : Постоянный
Битрейт : 192 Кбит/сек
Каналы : 2 канала
Расположение каналов : Front: L R
Частота : 48,0 КГц
Частота кадров : 31,250 кадров/сек (1536 spf)
Метод сжатия : С потерями
Размер потока : 136 Мбайт (1%)
Заголовок : MVO Н-Кино
Язык : Russian
Default : Нет
Forced : Нет

Аудио #3
Идентификатор : 4
Формат : AC-3
Формат/Информация : Audio Coding 3
Расширение режима : CM (complete main)
Параметр Endianness формата : Big
Идентификатор кодека : A_AC3
Продолжительность : 1 ч. 39 м.
Вид битрейта : Постоянный
Битрейт : 192 Кбит/сек
Каналы : 2 канала
Расположение каналов : Front: L R
Частота : 48,0 КГц
Частота кадров : 31,250 кадров/сек (1536 spf)
Метод сжатия : С потерями
Размер потока : 136 Мбайт (1%)
Заголовок : DVO Премьер Видео Фильм
Язык : Russian
Default : Нет
Forced : Нет

Аудио #4
Идентификатор : 5
Формат : AC-3
Формат/Информация : Audio Coding 3
Расширение режима : CM (complete main)
Параметр Endianness формата : Big
Идентификатор кодека : A_AC3
Продолжительность : 1 ч. 39 м.
Вид битрейта : Постоянный
Битрейт : 192 Кбит/сек
Каналы : 2 канала
Расположение каналов : Front: L R
Частота : 48,0 КГц
Частота кадров : 31,250 кадров/сек (1536 spf)
Метод сжатия : С потерями
Размер потока : 136 Мбайт (1%)
Заголовок : DVO НТВ+
Язык : Russian
Default : Нет
Forced : Нет

Аудио #5
Идентификатор : 6
Формат : AC-3
Формат/Информация : Audio Coding 3
Расширение режима : CM (complete main)
Параметр Endianness формата : Big
Идентификатор кодека : A_AC3
Продолжительность : 1 ч. 39 м.
Вид битрейта : Постоянный
Битрейт : 192 Кбит/сек
Каналы : 2 канала
Расположение каналов : Front: L R
Частота : 48,0 КГц
Частота кадров : 31,250 кадров/сек (1536 spf)
Метод сжатия : С потерями
Размер потока : 136 Мбайт (1%)
Заголовок : DVO НТВ
Язык : Russian
Default : Нет
Forced : Нет

Аудио #6
Идентификатор : 7
Формат : AC-3
Формат/Информация : Audio Coding 3
Расширение режима : CM (complete main)
Параметр Endianness формата : Big
Идентификатор кодека : A_AC3
Продолжительность : 1 ч. 39 м.
Вид битрейта : Постоянный
Битрейт : 192 Кбит/сек
Каналы : 2 канала
Расположение каналов : Front: L R
Частота : 48,0 КГц
Частота кадров : 31,250 кадров/сек (1536 spf)
Метод сжатия : С потерями
Размер потока : 136 Мбайт (1%)
Заголовок : AVO Гаврилов Андрей Юрьевич
Язык : Russian
Default : Нет
Forced : Нет

Аудио #7
Идентификатор : 8
Формат : AC-3
Формат/Информация : Audio Coding 3
Расширение режима : CM (complete main)
Параметр Endianness формата : Big
Идентификатор кодека : A_AC3
Продолжительность : 1 ч. 39 м.
Вид битрейта : Постоянный
Битрейт : 192 Кбит/сек
Каналы : 2 канала
Расположение каналов : Front: L R
Частота : 48,0 КГц
Частота кадров : 31,250 кадров/сек (1536 spf)
Метод сжатия : С потерями
Размер потока : 136 Мбайт (1%)
Заголовок : AVO Михалёв Алексей Михайлович
Язык : Russian
Default : Нет
Forced : Нет

Аудио #8
Идентификатор : 9
Формат : DTS
Формат/Информация : Digital Theater Systems
Режим : 16
Параметр Endianness формата : Big
Идентификатор кодека : A_DTS
Продолжительность : 1 ч. 39 м.
Вид битрейта : Постоянный
Битрейт : 768 Кбит/сек
Каналы : 2 канала
Расположение каналов : Front: L R
Частота : 48,0 КГц
Частота кадров : 93,750 кадра/сек (512 spf)
Битовая глубина : 16 бит
Метод сжатия : С потерями
Задержка видео : 11 мс.
Размер потока : 545 Мбайт (4%)
Язык : English
Default : Нет
Forced : Нет

Текст #1
Идентификатор : 10
Формат : UTF-8
Идентификатор кодека : S_TEXT/UTF8
Идентификатор кодека/Информация : UTF-8 Plain Text
Язык : English
Default : Нет
Forced : Нет

Текст #2
Идентификатор : 11
Формат : UTF-8
Идентификатор кодека : S_TEXT/UTF8
Идентификатор кодека/Информация : UTF-8 Plain Text
Заголовок : SDH
Язык : English
Default : Нет
Forced : Нет

Меню
00:00:00.000 : en:Chapter 01
00:04:57.005 : en:Chapter 02
00:07:37.123 : en:Chapter 03
00:14:55.060 : en:Chapter 04
00:18:27.523 : en:Chapter 05
00:25:20.602 : en:Chapter 06
00:36:38.779 : en:Chapter 07
00:42:58.158 : en:Chapter 08
00:47:50.617 : en:Chapter 09
00:57:24.274 : en:Chapter 10
01:03:05.364 : en:Chapter 11
01:09:46.515 : en:Chapter 12
01:17:03.327 : en:Chapter 13
01:24:01.870 : en:Chapter 14
01:30:37.682 : en:Chapter 15
01:35:52.621 : en:Chapter 16

piratbit.org



Скачать Ночные ястребы через торрент https://a.radikal.ru/a16/1909/76/d902c7070e75.png Скачать фильм Ночные ястребы через торрент бесплантно в хорошем качестве Описание: Отчаянный сержант нью-йоркской полиции Дик Де Сильва привык ловить преступников в экстремальной ситуации «на живца», в роли ... 10 10 6
Торрент: Зарегистрирован [2020-06-29 18:27] · скачан: 37 раз
Статус: √ проверено
Размер: 12.55 GB
Как cкачать? Как скачать Ночные ястребы через торрент | qTorrent

28-11-2019 20:33  

Отключить всю рекламу на сайте

29-06-2020 18:55 Ночные ястребы Скачать торрент  

Ух ёшкин кот. Это мой самый первый видеофильм из детства в видеосалоне.piratbit.org



    Дорогой пользователь! Огромная просьба, поблагодарите релизера, оцените раздачу и оставьте свои комментарий, если Вы скачали Ночные ястребы через торрент бесплатно! Внесите свою лепту в развитие PiratBit!
    Комментировать посты могут только пользователи прошедшие не сложную регистрацию
    Показать сообщения:    

    Ночные ястребы через торрент
    Скачать бесплатно Ночные ястребы
    Ночные ястребы скачать торрент
    Ночные ястребы смотреть онлайн
    Cкачать фильм Ночные ястребы бесплатно
    Ночные ястребы скачать торрент в хорошем качестве
    Ночные ястребы смотреть онлайн бесплатно в хорошем качестве


    Вы не можете начинать темы
    Вы не можете отвечать на сообщения
    Вы не можете редактировать свои сообщения
    Вы не можете удалять свои сообщения
    Вы не можете голосовать в опросах
    Вы не можете прикреплять файлы к сообщениям
    Вы можете скачивать файлы