Ссылка на приватное зеркало всего за 1$. Внимание количество ограничено!!!

iTunes

iTunes

iTunes

1

iTunes

iTunes

iTunes

iTunes

iTunes

30
pack

$ от Little Big

ВАЖНО

!!Акция!!

Alien_RageХит недели

RePack

Resident Evil 21

ИГРА 18+

pack

RePack

jed

!!Акция!!

Alien_Rage

RePack

fifa19

RePack

Assassins Creed: Odyssey

RePack

NEED FOR SPEED™ PAYBACK

4 сезон

9 сезон

Бесстыжие 9 сезон

Все сериалы

все сериалы на PB.wtf

RePack

FAR CRY 5
  

Композитор / Yin yue jia (Шерзат Якуб, Сабит Курманбеков) [2019, драма, военный, биография, история, DVB] [Локализированный видеоряд] piratbit.org

Композитор через торрент piratbit.org

Раздают: 4 [ 0 KB/s ]
Размер: 1.35 GB | Добавлен: 9 д. назад | Торрент скачан:45 раз
Скачать  

29-06-2020 18:52 Композитор Скачать торрент  

Композитор
Yin yue jia
Год выпуска: 2019
Страна: Китай, Казахстан
Жанр: драма, история
Продолжительность: 01:33:54
Перевод: не требуется
Субтитры: русские, форсированные (на китайские и казахские диалоги)
Режиссёры: Шерзат Якуб: Xierzhati Yahefu, Сабит Курманбеков: Sabit Kurmanbekov
В ролях: Ху Цзюнь, Юань Цуань, Берик Айтжанов, Аружан Джазильбекова, Сюэ Джу, Алтынай Ногербек
О фильме: В 1940 году китайский композитор Сянь Синхай отправляется в Советский Союз, чтобы написать музыку к документальному фильму «Яньань и 8-я армия». Но начало Великой Отечественной войны помешало музыканту вернуться домой, и он осел в Алма-Ате. Там Синхай заводит дружбу с руководителем хора Казахского радио Бахытжаном Байкадамовым.
rating

Семпл: http://sendfile.su/1566544
Качество: DVB [Хабар] (эфир 22.06.2020)
Формат: TS
Видео: AVC, 720x576 @ 1047x576 (16:9), 25 fps, ~1768 kbps, 0.171 bit/pixel
Аудио: [RUS] 48 kHz, MP2, 2 ch, 192 kbps
General
ID : 1 (0x1)
Complete name : H:\Раздачи\Композитор (2019) [DVB].ts
Format : MPEG-TS
File size : 1.35 GiB
Duration : 1 h 33 min
Overall bit rate mode : Variable
Overall bit rate : 2 064 kb/s

Video
ID : 69 (0x45)
Menu ID : 1 (0x1)
Format : AVC
Format/Info : Advanced Video Codec
Format profile : High@L3
Format settings : CABAC / 3 Ref Frames
Format settings, CABAC : Yes
Format settings, RefFrames : 3 frames
Codec ID : 27
Duration : 1 h 33 min
Bit rate : 1 768 kb/s
Width : 720 pixels
Height : 576 pixels
Display aspect ratio : 16:9
Frame rate : 25.000 FPS
Standard : Component
Color space : YUV
Chroma subsampling : 4:2:0
Bit depth : 8 bits
Scan type : Interlaced
Scan type, store method : Separated fields
Scan order : Top Field First
Bits/(Pixel*Frame) : 0.171
Stream size : 1.16 GiB (86%)
Color range : Limited
Color primaries : BT.601 PAL
Transfer characteristics : BT.470 System B/G
Matrix coefficients : BT.470 System B/G

Audio
ID : 68 (0x44)
Menu ID : 1 (0x1)
Format : MPEG Audio
Format version : Version 1
Format profile : Layer 2
Codec ID : 3
Duration : 1 h 33 min
Bit rate mode : Constant
Bit rate : 192 kb/s
Channel(s) : 2 channels
Sampling rate : 48.0 kHz
Frame rate : 41.667 FPS (1152 SPF)
Compression mode : Lossy
Stream size : 129 MiB (9%)
Language : English
скриншот  скриншот  скриншот  
piratbit.org



Скачать Композитор через торрент https://i112.fastpic.ru/big/2020/0624/c7/49323ec4e8d2153e960ca0c5cf1f86c7.jpg Скачать фильм Композитор через торрент бесплантно в хорошем качестве О фильме: В 1940 году китайский композитор Сянь Синхай отправляется в Советский Союз, чтобы написать музыку к документальному фильму ... 5.5 10 2
Торрент: Зарегистрирован [2020-06-29 18:52] · скачан: 45 раз
Статус: √ проверено
Размер: 1.35 GB
Как cкачать? Как скачать Композитор через торрент | qTorrent

28-11-2019 20:33  

Отключить всю рекламу на сайте

    Дорогой пользователь! Огромная просьба, поблагодарите релизера, оцените раздачу и оставьте свои комментарий, если Вы скачали Композитор через торрент бесплатно! Внесите свою лепту в развитие PiratBit!
    Комментировать посты могут только пользователи прошедшие не сложную регистрацию
    Показать сообщения:    

    Композитор через торрент
    Скачать бесплатно Композитор
    Композитор скачать торрент
    Композитор смотреть онлайн
    Cкачать фильм Композитор бесплатно
    Композитор скачать торрент в хорошем качестве
    Композитор смотреть онлайн бесплатно в хорошем качестве


    Вы не можете начинать темы
    Вы не можете отвечать на сообщения
    Вы не можете редактировать свои сообщения
    Вы не можете удалять свои сообщения
    Вы не можете голосовать в опросах
    Вы не можете прикреплять файлы к сообщениям
    Вы можете скачивать файлы