Marvel's Avengers Deluxe Edition (супер цена) 159р. Внимание количество ограничено!!!

2 сезон

iTunes

iTunes

1

iTunes

iTunes

iTunes

WEBRip

iTunes

30
pack

Новость дня

ВАЖНО

!!Акция!!

Alien_RageХит недели

RePack

Horizon Zero Dawn

ИГРА 18+

pack

RePack

jed

!!Акция!!

Alien_Rage

RePack

fifa19

RePack

Assassins Creed: Odyssey

RePack

NEED FOR SPEED™ PAYBACK

4 сезон

9 сезон

Бесстыжие 9 сезон

Все сериалы

все сериалы на PB.wtf

RePack

FAR CRY 5
  

Роковой патруль / Doom Patrol / Сезон: 2 / Серии: 1-9 из 9 (Дермотт Даунс, Гарри Жиержиан, Крис Мэнли) [2020, Фантастика, боевик, драма, приключения, WEB-DLRip] DVO [Кубик в кубе] piratbit.org

Роковой патруль через торрент piratbit.org

Раздают: 3 [ 434 KB/s ]
Размер: 6.93 GB | Добавлен: 4 д. назад | Торрент скачан:10 раз
Скачать  

30-06-2020 16:47 Роковой патруль Скачать торрент  

Роковой патруль | Doom Patrol
«***»
Год выпуска: 2020
Страна: США
Жанр: Фантастика, боевик, драма, приключения
Продолжительность: ~ 00:50:00
Перевод: Профессиональный (двухголосый закадровый) | Кубик в кубе
Субтитры: Русские (Кинопоиск), английские (SDH)

Режиссёр: Дермотт Даунс, Гарри Жиержиан, Крис Мэнли

В ролях: Райли Шэнэхэн (Riley Shanahan), Дайан Герреро (Diane Guerrero), Эйприл Боулби (April Bowlby), Алан Тьюдик (Alan Tudyk), Мэтт Бомер (Matt Bomer), Брендан Фрейзер (Brendan Fraser), Тимоти Далтон (Timothy Dalton), Мэттью Зук (Matthew Zuk), Джоиван Уэйд (Joivan Wade), Фил Моррис (Phil Morris), Джули МакНивен (Julie McNiven), Кайл Расселл Клементс (Kyle Clements), Джон Бридделл (Jon Briddell), Скай Робертс (Skye Roberts)

Описание: Иногда трагедии обрывают человеческие жизни, а иногда меняют их до неузнаваемости. Так произошло и с Клиффом Стилом (Брендан Фрейзер), лихим раллистом, который попал в страшнейшую автокатастрофу. Весь мир поспешил счесть Стила мертвым, однако доктору Найлзу Колдеру (Тимоти Далтон) удалось спасти мозг гонщика и пересадить его в «тело» робота. Когда Клифф пришел в сознание, он с удивлением обнаружил, что Колдер, он же Шеф, собрал под крышей своего дома целую команду таких же несчастных, как он. Вскоре у профессора, подарившего каждому из них вторую жизнь и суперспособности, появляются опасные враги. И вместо тихого отшельнического образа жизни пятеро уродцев получают возможность проявить свои силы на полную и защитить от всесильных злодеев Шефа, город и все живое...

rating

Качество: WEB-DLRip
Формат: AVI

Видео: XviD, 704x320 (2,2:1), 23,976 кадров/сек, ~1800 Кбит/сек
Аудио Rus: AC3, 48,0 kHz, 2 ch, 192 Кбит/сек
Аудио Eng: AC3, 48,0 kHz, 2 ch, 192 Кбит/сек
скриншот  скриншот  скриншот  скриншот  

Общее
Полное имя : E:\Doom.Patrol.S02.1080p.HMAX.WEB-DL.DDP5.1.H.264-NTb_Kyle\Doom.Patrol.S02E01.WEB-DLRip.RGzsRutracker.[Wentworth_Miller].avi
Формат : AVI
Формат/Информация : Audio Video Interleave
Размер файла : 847 Мбайт
Продолжительность : 53 м. 51 с.
Общий поток : 2 198 Кбит/сек
Программа кодирования : VirtualDubMod 1.5.10.3 | www.virtualdub-fr.org || (build 2550/release)
Библиотека кодирования : VirtualDubMod build 2550/release

Видео
Идентификатор : 0
Формат : MPEG-4 Visual
Профиль формата : Advanced Simple@L5
Настройки формата : BVOP1
Параметр BVOP формата : 1
Параметр QPel формата : Нет
Параметр GMC формата : Без точки перехода
Параметр матрицы формата : Default (MPEG)
Идентификатор кодека : XVID
Идентификатор кодека/Подсказка : XviD
Продолжительность : 53 м. 51 с.
Битрейт : 1 800 Кбит/сек
Ширина : 704 пикселя
Высота : 320 пикселей
Соотношение сторон : 2,2:1
Частота кадров : 23,976 (24000/1001) кадра/сек
Цветовое пространство : YUV
Субдискретизация насыщенности : 4:2:0
Битовая глубина : 8 бит
Тип развёртки : Прогрессивная
Метод сжатия : С потерями
Бит/(Пиксели*Кадры) : 0.333
Размер потока : 693 Мбайт (82%)
Библиотека кодирования : XviD 67

Аудио #1
Идентификатор : 1
Формат : AC-3
Формат/Информация : Audio Coding 3
Коммерческое название : Dolby Digital
Идентификатор кодека : 2000
Продолжительность : 53 м. 51 с.
Вид битрейта : Постоянный
Битрейт : 192 Кбит/сек
Каналы : 2 канала
Channel layout : L R
Частота : 48,0 КГц
Частота кадров : 31,250 кадров/сек (1536 SPF)
Метод сжатия : С потерями
Размер потока : 74,0 Мбайт (9%)
Выравнивание : Разделение по промежуткам
Продолжительность промежутка : 42 мс. (1,00 видеокадр)
Время предзагрузки промежутка : 500 мс.
Service kind : Complete Main

Аудио #2
Идентификатор : 2
Формат : AC-3
Формат/Информация : Audio Coding 3
Коммерческое название : Dolby Digital
Идентификатор кодека : 2000
Продолжительность : 53 м. 51 с.
Вид битрейта : Постоянный
Битрейт : 192 Кбит/сек
Каналы : 2 канала
Channel layout : L R
Частота : 48,0 КГц
Частота кадров : 31,250 кадров/сек (1536 SPF)
Метод сжатия : С потерями
Размер потока : 74,0 Мбайт (9%)
Выравнивание : Разделение по промежуткам
Продолжительность промежутка : 42 мс. (1,00 видеокадр)
Время предзагрузки промежутка : 500 мс.
Service kind : Complete Main

Когда раздача ведётся путём добавления новых серий, при каждом добавлении создётся новый торрент. Чтобы начать докачку новой серии, пользователям необходимо сделать следующее:
(1) остановить скачивание,
(2) удалить старый торрент у себя из клиента (старые серии удалять не надо),
(3) скачать новый торрент и запустить его у себя в клиенте вместо старого, при этом указать клиенту путь в старую папку, куда и должно происходить скачивание новых серий.
Ваш клиент при этом должен произвести хеширование (проверку) старой папки (если не производит сам - помогите ему сделать это), и будет докачивать только те серии, которых у вас ещё нет. Старые серии при этом не удаляются, а продолжают раздаваться!
Eсли вы уже удалили старые серии, то предотвратить повторную закачку старых серий можно, отжав галочку в соответсвующих местах при запуске нового торрента. По возможности, желательно не удалять старые серии как можно дольше, чтобы релизёр не столько продолжал раздавать старые серии, а смог сконцентрироваться на новых.

piratbit.org



Скачать Роковой патруль через торрент https://i112.fastpic.ru/big/2020/0627/80/058891f766545f7d1a4e4992f3cb0280.jpg?r=1 Скачать фильм Роковой патруль через торрент бесплантно в хорошем качестве Описание: Иногда трагедии обрывают человеческие жизни, а иногда меняют их до неузнаваемости. Так произошло и с Клиффом Стилом (Брендан ... 10 10 5
Торрент: Зарегистрирован [2020-09-16 02:30] · скачан: 10 раз
Статус: √ проверено
Размер: 6.93 GB
Как cкачать? Как скачать Роковой патруль через торрент | qTorrent

% Раздел Тема Автор DL S | L
Зарубежные сериалы [ 40.05 GB ] Роковой патруль / Doom Patrol / Сезон: 2 / Серии: 1-9 из 9 [2020 WEB-DL 2160p] 2x[DVO] +3x[MVO] killermax2013 Скачать
1 | 0
Зарубежные сериалы [ 28.41 GB ] Роковой патруль / Doom Patrol / Сезон: 2 / Серии: 1-9 из 9 [2020 WEB-DL 1080p] MVO [NewStudio] bober100 Скачать
4 | 0
Зарубежные сериалы [ 15.41 GB ] Роковой патруль / Doom Patrol / Сезон: 2 / Серии: 1-9 из 9 [2020 WEB-DL 720p] DVO [Кубик в кубе] +2xMVO [LostFilm NewStudio] bober100 Скачать
2 | 0
Зарубежные сериалы [ 5.72 GB ] Роковой патруль / Doom Patrol / Сезон: 2 / Серии: 1-9 из 9 [2020 WEB-DLRip] MVO [TVShows] bober100 Скачать
3 | 0
Зарубежные сериалы [ 770 MB ] Роковой патруль / Doom Patrol / Сезон: 2 / Серии: 1- из 9 [2020 . WEB-DLRip] [MVO] killermax2013 Скачать
1 | 0
Зарубежные сериалы [ 28.85 GB ] Роковой патруль / Doom Patrol / Сезон: 2 / Серии: 1-9 из 9 [2020 WEB-DL 1080p] [DVO] killermax2013 Скачать
1 | 0
Зарубежные сериалы [ 1.77 GB ] Роковой патруль / Doom Patrol / Сезон: 2 / Серии: 1- из 9 [2020 WEBRip 1080p] [MVO] killermax2013 Скачать
1 | 0

28-11-2019 20:33  

Отключить всю рекламу на сайте

    Дорогой пользователь! Огромная просьба, поблагодарите релизера, оцените раздачу и оставьте свои комментарий, если Вы скачали Роковой патруль через торрент бесплатно! Внесите свою лепту в развитие PiratBit!
    Комментировать посты могут только пользователи прошедшие не сложную регистрацию
    Показать сообщения:    

    Роковой патруль через торрент
    Скачать бесплатно Роковой патруль
    Роковой патруль скачать торрент
    Роковой патруль смотреть онлайн
    Cкачать фильм Роковой патруль бесплатно
    Роковой патруль скачать торрент в хорошем качестве
    Роковой патруль смотреть онлайн бесплатно в хорошем качестве


    Вы не можете начинать темы
    Вы не можете отвечать на сообщения
    Вы не можете редактировать свои сообщения
    Вы не можете удалять свои сообщения
    Вы не можете голосовать в опросах
    Вы не можете прикреплять файлы к сообщениям
    Вы можете скачивать файлы