Ссылка на приватное зеркало нашего сайта всего за 1$. Внимание количество ограничено!!!

2 сезон

iTunes

iTunes

1

iTunes

iTunes

iTunes

WEBRip

iTunes

30
pack

Вам бонус

ВАЖНО

!!Акция!!

Alien_RageХит недели

RePack

Horizon Zero Dawn

ИГРА 18+

pack

RePack

jed

!!Акция!!

Alien_Rage

RePack

fifa19

RePack

Assassins Creed: Odyssey

RePack

NEED FOR SPEED™ PAYBACK

4 сезон

9 сезон

Бесстыжие 9 сезон

Все сериалы

все сериалы на PB.wtf

RePack

FAR CRY 5
  

Война / War (Филипп Джей Атвилл) [2007 г., Боевик, триллер, криминал, BDRip] DUB, MVO, DVO, AVO (Гаврилов) piratbit.org

Война через торрент piratbit.org

Раздают: 1 [ 0 KB/s ]
Размер: 2.16 GB | Добавлен: 2 мес. 5 д. назад | Торрент скачан:50 раз
Скачать  

17-07-2020 18:06 Война Скачать торрент  

Война / War
Год выпуска: 2007

Страна: США, Канада

Жанр: Боевик, триллер, криминал

Продолжительность: 01:42:54

Перевод: Дублированный, профессиональный (многоголосый), профессиональный (двухголосый), авторский (одноголосый)

Режиссер: Филипп Джей Атвилл

rating

В ролях: Джет Ли, Джейсон Стэйтем, Джон Лоне, Девон Аоки, Луис Гусман, Сауль Рубинек, Рио Ишибаси, Сон Кан, Мэтью Ст. Патрик, Надин Веласкес, Андреа Рот, Кеннет Чои, Марк Чэн, Кэйн Косуги, Кеннеди Монтано, Терри Чен, Стеф Сонг, Анника Фу, Николас Элиа, Эрик Кинлисайд, Пол Джарретт, Джонсон Фэн, Аарон Ау, Марк Луи, Дженнифер Чунг, Люси Лью, Рэнди Ли, Дерек Лоу, Джон Новак

Описание: Уже долгое время полиция не может поймать циничного и беспощадного убийцу. Киллер экстра-класса, о чьей жестокости ходят легенды даже в криминальном мире, практически неуязвим. Играючи, он выскальзывает из какой угодно ловушки и уходит от любой погони, оставляя за собой горы трупов. Агент ФБР Джек Кроуфорд принимает участие в расследовании. Потеряв напарника в одной из схваток с убийцей, он преследует только одну цель - уничтожить неуловимого киллера!
Качество: BDRip
Формат: AVI
Видео: XviD, 1635 Кбит/с, 704x400, 24.000 кадр/с
Аудио 1: Русский, AC3, 6 ch, 384 Кбит/сек - DUB
Аудио 2: Русский, AC3, 6 ch, 384 Кбит/сек - MVO (LostFilm)
Аудио 3: Русский, AC3, 2 ch, 192 Кбит/сек - DVO (Ren-TV)
Аудио 4: Русский, AC3, 6 ch, 384 Кбит/сек - AVO (Андрей Гаврилов)
Видео
Идентификатор : 0
Формат : MPEG-4 Visual
Профиль формата : Advanced Simple@L5
Параметр BVOP формата : 1
Параметр QPel формата : Нет
Параметр GMC формата : Без точки перехода
Параметр матрицы формата : Выборочная
Идентификатор кодека : XVID
Идентификатор кодека/Подсказка : XviD
Продолжительность : 1 ч. 42 м.
Битрейт : 1635 Кбит/сек
Ширина : 704 пикселя
Высота : 400 пикселей
Соотношение сторон : 16:9
Частота кадров : 24,000 кадра/сек
Цветовое пространство : YUV
Субдискретизация насыщенности : 4:2:0
Битовая глубина : 8 бит
Тип развёртки : Прогрессивная
Метод сжатия : С потерями
Бит/(Пиксели*Кадры) : 0.242
Размер потока : 1,18 Гбайт (54%)
Библиотека кодирования : XviD 73

Аудио #1
Идентификатор : 1
Формат : AC-3
Формат/Информация : Audio Coding 3
Расширение режима : CM (complete main)
Параметр Endianness формата : Big
Идентификатор кодека : 2000
Продолжительность : 1 ч. 42 м.
Вид битрейта : Постоянный
Битрейт : 384 Кбит/сек
Каналы : 6 каналов
Расположение каналов : Front: L C R, Side: L R, LFE
Частота : 48,0 КГц
Битовая глубина : 16 бит
Метод сжатия : С потерями
Размер потока : 283 Мбайт (13%)
Выравнивание : Разделение по промежуткам
Продолжительность промежутка : 42 мс. (1,00 видеокадр)
Время предзагрузки промежутка : 500 мс.
Заголовок : Дубляж AC3 5.1 @ 384 kbps

Аудио #2
Идентификатор : 2
Формат : AC-3
Формат/Информация : Audio Coding 3
Расширение режима : CM (complete main)
Параметр Endianness формата : Big
Идентификатор кодека : 2000
Продолжительность : 1 ч. 42 м.
Вид битрейта : Постоянный
Битрейт : 384 Кбит/сек
Каналы : 6 каналов
Расположение каналов : Front: L C R, Side: L R, LFE
Частота : 48,0 КГц
Битовая глубина : 16 бит
Метод сжатия : С потерями
Размер потока : 283 Мбайт (13%)
Выравнивание : Разделение по промежуткам
Продолжительность промежутка : 42 мс. (1,00 видеокадр)
Время предзагрузки промежутка : 500 мс.
Заголовок : Многоголосый [LostFilm] AC3 5.1 @ 384 kbps

Аудио #3
Идентификатор : 3
Формат : AC-3
Формат/Информация : Audio Coding 3
Расширение режима : CM (complete main)
Параметр Endianness формата : Big
Идентификатор кодека : 2000
Продолжительность : 1 ч. 42 м.
Вид битрейта : Постоянный
Битрейт : 192 Кбит/сек
Каналы : 2 канала
Расположение каналов : Front: L R
Частота : 48,0 КГц
Битовая глубина : 16 бит
Метод сжатия : С потерями
Размер потока : 141 Мбайт (6%)
Выравнивание : Разделение по промежуткам
Продолжительность промежутка : 42 мс. (1,00 видеокадр)
Время предзагрузки промежутка : 500 мс.
Заголовок : Двухголосый [Ren-TV] AC3 2.0 @ 192 kbps

Аудио #4
Идентификатор : 4
Формат : AC-3
Формат/Информация : Audio Coding 3
Расширение режима : CM (complete main)
Параметр Endianness формата : Big
Идентификатор кодека : 2000
Продолжительность : 1 ч. 42 м.
Вид битрейта : Постоянный
Битрейт : 384 Кбит/сек
Каналы : 6 каналов
Расположение каналов : Front: L C R, Side: L R, LFE
Частота : 48,0 КГц
Битовая глубина : 16 бит
Метод сжатия : С потерями
Размер потока : 283 Мбайт (13%)
Выравнивание : Разделение по промежуткам
Продолжительность промежутка : 42 мс. (1,00 видеокадр)
Время предзагрузки промежутка : 500 мс.
Заголовок : Авторский [Андрей Гаврилов] AC3 5.1 @ 384 kbps

скриншот   скриншот   скриншот   скриншот   скриншот  

piratbit.org



Скачать Война через торрент http://pic1.kartinco.top/images/12/144xa.jpg Скачать фильм Война через торрент бесплантно в хорошем качестве Описание: Уже долгое время полиция не может поймать циничного и беспощадного убийцу. Киллер экстра-класса, о чьей жестокости ходят легенды ... 10 10 7
× Info от релизера! Добавлены 3 звуковых дорожки
Торрент: Зарегистрирован [2020-07-17 18:56] · скачан: 50 раз
Статус: √ проверено
Размер: 2.16 GB
Как cкачать? Как скачать Война через торрент | qTorrent

% Раздел Тема Автор DL S | L
Сборники на DVD и Сиквелы [DVDrip, WEB-DLRip, HDrip, BDRip] [ 4.36 GB ] Звёздные войны 123456 / Star Wars [1977 1980 1983 1999 2002 2005 г HDTVRip-AVC] DUB - Мега-сборка на 1 DVD L_E_X Скачать
1 | 0
Зарубежные сериалы [ 3.71 GB ] Войны байкеров / Bikie Wars: Brothers in Arms / Сезон: 1 / Серии: 1-6 [2012 история образ жизни HDRip] MVO FilmGate + Original wekotila Скачать
1 | 1
Дополнения к играм [ 1.03 GB ] Герои меча и магии 5: Эпоха эпических войн / Heroes of Might & Magic V: Epic War Age [лицензияRUМодификация / Аdd-Оn / Пошаговая стратегия] Ghost161 Скачать
2 | 0
RPG [ 4.1 GB ] Star Wars: Battlefront. Anthology / Звёздные войны: Арена войны. Антология [RePackRU/ENLucasArts Entertainment] IZnoGood Скачать
1 | 0
Фильмы (Blu-ray, BD-Remux, HDDVD) [ 21.99 GB ] Звездные войны: Эпизод 3 - Месть Ситхов / Star Wars: Episode III - Revenge of the Sith [2005 BDRip 1080p] fallen_poet Скачать
1 | 0
RTS (стратегии в реальном времени) [ 4.62 GB ] Warhammer 40k Dawn of War: Рассвет войны - Зов улья 2011 [ПираткаRUStrategy / 3D] =Чувак= Скачать
1 | 0
TBS (пошаговые стратегии) [ 1.66 GB ] Герои Меча и Магии IV + Грядущая буря + Вихри войны [Бука] [L] Shmel Скачать
1 | 0

28-11-2019 20:33  

Отключить всю рекламу на сайте

18-07-2020 03:47 Война Скачать торрент  

Леонид Ильич молодец!piratbit.org



    Дорогой пользователь! Огромная просьба, поблагодарите релизера, оцените раздачу и оставьте свои комментарий, если Вы скачали Война через торрент бесплатно! Внесите свою лепту в развитие PiratBit!
    Комментировать посты могут только пользователи прошедшие не сложную регистрацию
    Показать сообщения:    

    Война через торрент
    Скачать бесплатно Война
    Война скачать торрент
    Война смотреть онлайн
    Cкачать фильм Война бесплатно
    Война скачать торрент в хорошем качестве
    Война смотреть онлайн бесплатно в хорошем качестве


    Вы не можете начинать темы
    Вы не можете отвечать на сообщения
    Вы не можете редактировать свои сообщения
    Вы не можете удалять свои сообщения
    Вы не можете голосовать в опросах
    Вы не можете прикреплять файлы к сообщениям
    Вы можете скачивать файлы