1 сезон

3 сезон

iTunes

1

iTunes

MVO

iTunes

13

1 сезон

RePack

30

Deluxe

pack

Лицензия

ВАЖНО

ИГРА 18+

pack

RePack

MK11

RePack

jed

RePack

fifa19

RePack

RDR2

RePack

NEED FOR SPEED™ PAYBACK

4 сезон

9 сезон

Бесстыжие 9 сезон

Все сериалы

все сериалы на PB.wtf

RePack

FAR CRY 5

Anonymous, добрый день, мы катастрофически не успеваем собрать деньги на оплату серверов, помогите нам пожалуйста 5,10,15р., для нас важна любая помощь . В качестве благодарности мы отключим Вам всю рекламу на сайте (укажите свой ник в строку Ваше имя)!

×
  
Magnet ссылка

Тайное окно / Secret Window (Дэвид Кепп) [2004 г., триллер, ужасы, детектив, BDRip AVC] DUB, 2xMVO, AVO (Е. Рудой) piratbit.org

Тайное окно через торрент piratbit.org

Размер: 3.01 GB | Добавлен: 1 год назад | Торрент скачан:16 раз
Скачать  

18-07-2020 11:52 Тайное окно Скачать торрент  

Тайное окно / Secret Window
Год выпуска: 2004

Страна: США

Жанр: Триллер, ужасы, детектив

Продолжительность: 01:35:56

Перевод: Дублированный, профессиональный (многоголосый), авторский (одноголосый)

Субтитры: Русские, английские

Режиссер: Дэвид Кепп

rating

В ролях: Джонни Депп, Джон Туртурро, Мария Белло, Тимоти Хаттон, Чарльз С. Даттон, Лен Кариу, Джоан Хини, Джон Данн-Хилл, Власта Врана, Мэтт Холлэнд, Джиллиан Ферраби, Бронуэн Мэнтел, Элизабет Марло, Кайл Аллатт, Ричард Жютра, Кевин Вудхаус, Вито Филлипо, Сара Аллен

Описание: Фильм представляет собой экранизацию романа самого известного автора триллеров — Стивена Кинга. На этот раз картина повествует о талантливом и успешном писателе Морте Рейни, который переживает не самые лучшие времена в своей жизни. После того как он застал свою жену в постели с другим мужчиной и пережил утомительные формальности развода, Морт решает удалиться от дел, переехать за город и в тишине сельской жизни бороться с творческим кризисом, постигшим его. И все было хорошо до тех пор, пока однажды ночью в его дом не ворвался незнакомец, обвинивший Морта в плагиате. Джон Шутер был слишком похож на психопата, а его пистолет — на настоящий, чтобы Морту пришла в голову идея с ним спорить. И когда писатель попытался убедить собеседника в своей правоте, показав ему рукописи книги, он столкнулся с небольшой проблемой — рукопись бесследно исчезла.
Качество: BDRip AVC
Формат: MKV
Видео: MPEG-4 AVC, 2500 Кбит/с, 1024x426, 23.976 кадр/с
Аудио#1: Русский, AC3, 6 ch, 448 Кбит/сек - DUB
Аудио#2: Русский, AC3, 6 ch, 448 Кбит/сек - MVO
Аудио#3: Русский, AC3, 6 ch, 448 Кбит/сек - AVO (Е. Рудой)
Аудио#4: Украинский, AC3, 2 ch, 192 Кбит/сек - MVO
Аудио#5: Английский, AC3, 6 ch, 448 Кбит/сек
Видео
Идентификатор : 1
Формат : AVC
Формат/Информация : Advanced Video Codec
Профиль формата : High@L4.1
Настройки формата : CABAC / 9 Ref Frames
Параметр CABAC формата : Да
Параметр RefFrames формата : 9 кадров
Идентификатор кодека : V_MPEG4/ISO/AVC
Продолжительность : 1 ч. 35 м.
Битрейт : 2500 Кбит/сек
Ширина : 1024 пикселя
Высота : 426 пикселей
Соотношение сторон : 2,40:1
Режим частоты кадров : Постоянный
Частота кадров : 23,976 кадра/сек
Цветовое пространство : YUV
Субдискретизация насыщенности : 4:2:0
Битовая глубина : 8 бит
Тип развёртки : Прогрессивная
Бит/(Пиксели*Кадры) : 0.239
Размер потока : 1,62 Гбайт (54%)
Заголовок : Tajnoe.okno.2004.x264.BDRip.AVC.MediaClub
Библиотека кодирования : x264 core 130 r2273 b3065e6
Настройки программы : cabac=1 / ref=9 / deblock=1:-2:-2 / analyse=0x3:0x133 / me=umh / subme=11 / psy=1 / psy_rd=1.00:0.20 / mixed_ref=1 / me_range=32 / chroma_me=1 / trellis=2 / 8x8dct=1 / cqm=0 / deadzone=21,11 / fast_pskip=0 / chroma_qp_offset=-3 / threads=6 / lookahead_threads=1 / sliced_threads=0 / nr=0 / decimate=0 / interlaced=0 / bluray_compat=0 / constrained_intra=0 / bframes=8 / b_pyramid=2 / b_adapt=2 / b_bias=0 / direct=3 / weightb=1 / open_gop=0 / weightp=2 / keyint=240 / keyint_min=23 / scenecut=40 / intra_refresh=0 / rc=2pass / mbtree=0 / bitrate=2500 / ratetol=1.0 / qcomp=0.60 / qpmin=0 / qpmax=69 / qpstep=4 / cplxblur=20.0 / qblur=0.5 / ip_ratio=1.40 / pb_ratio=1.30 / aq=1:1.00
Язык : English
Default : Да
Forced : Нет

Аудио #1
Идентификатор : 2
Формат : AC-3
Формат/Информация : Audio Coding 3
Коммерческое название : Dolby Digital
Идентификатор кодека : A_AC3
Продолжительность : 1 ч. 35 м.
Вид битрейта : Постоянный
Битрейт : 448 Кбит/сек
Каналы : 6 каналов
ChannelLayout : L R C LFE Ls Rs
Частота : 48,0 КГц
Частота кадров : 31,250 кадров/сек (1536 SPF)
Метод сжатия : С потерями
Размер потока : 307 Мбайт (10%)
Заголовок : TRACK_01_DUB_RUS
Язык : Russian
ServiceKind/String : Complete Main
Default : Да
Forced : Нет

Аудио #2
Идентификатор : 3
Формат : AC-3
Формат/Информация : Audio Coding 3
Коммерческое название : Dolby Digital
Идентификатор кодека : A_AC3
Продолжительность : 1 ч. 35 м.
Вид битрейта : Постоянный
Битрейт : 448 Кбит/сек
Каналы : 6 каналов
ChannelLayout : L R C LFE Ls Rs
Частота : 48,0 КГц
Частота кадров : 31,250 кадров/сек (1536 SPF)
Метод сжатия : С потерями
Размер потока : 307 Мбайт (10%)
Заголовок : TRACK_02_MVO_RUS
Язык : Russian
ServiceKind/String : Complete Main
Default : Нет
Forced : Нет

Аудио #3
Идентификатор : 4
Формат : AC-3
Формат/Информация : Audio Coding 3
Коммерческое название : Dolby Digital
Идентификатор кодека : A_AC3
Продолжительность : 1 ч. 35 м.
Вид битрейта : Постоянный
Битрейт : 448 Кбит/сек
Каналы : 6 каналов
ChannelLayout : L R C LFE Ls Rs
Частота : 48,0 КГц
Частота кадров : 31,250 кадров/сек (1536 SPF)
Метод сжатия : С потерями
Размер потока : 307 Мбайт (10%)
Заголовок : TRACK_03_AVO_RUS_Rudoj
Язык : Russian
ServiceKind/String : Complete Main
Default : Нет
Forced : Нет

Аудио #4
Идентификатор : 5
Формат : AC-3
Формат/Информация : Audio Coding 3
Коммерческое название : Dolby Digital
Идентификатор кодека : A_AC3
Продолжительность : 1 ч. 35 м.
Вид битрейта : Постоянный
Битрейт : 192 Кбит/сек
Каналы : 2 канала
ChannelLayout : L R
Частота : 48,0 КГц
Частота кадров : 31,250 кадров/сек (1536 SPF)
Метод сжатия : С потерями
Размер потока : 132 Мбайт (4%)
Заголовок : TRACK_04_MVO_UKR
Язык : Ukrainian
ServiceKind/String : Complete Main
Default : Нет
Forced : Нет

Аудио #5
Идентификатор : 6
Формат : AC-3
Формат/Информация : Audio Coding 3
Коммерческое название : Dolby Digital
Идентификатор кодека : A_AC3
Продолжительность : 1 ч. 35 м.
Вид битрейта : Постоянный
Битрейт : 448 Кбит/сек
Каналы : 6 каналов
ChannelLayout : L R C LFE Ls Rs
Частота : 48,0 КГц
Частота кадров : 31,250 кадров/сек (1536 SPF)
Метод сжатия : С потерями
Размер потока : 307 Мбайт (10%)
Заголовок : TRACK_05_ORIGINAL_ENG
Язык : English
ServiceKind/String : Complete Main
Default : Нет
Forced : Нет

Текст #1
Идентификатор : 7
Формат : UTF-8
Идентификатор кодека : S_TEXT/UTF8
Идентификатор кодека/Информация : UTF-8 Plain Text
Заголовок : TEXT_01_SUB_RUS
Язык : Russian
Default : Нет
Forced : Нет

Текст #2
Идентификатор : 8
Формат : UTF-8
Идентификатор кодека : S_TEXT/UTF8
Идентификатор кодека/Информация : UTF-8 Plain Text
Заголовок : TEXT_02_SUB_ENG
Язык : English
Default : Нет
Forced : Нет

скриншот   скриншот   скриншот   скриншот  

piratbit.org



Скачать Тайное окно через торрент https://pic1.kartinco.top/images/12/61s35.jpg Скачать фильм Тайное окно через торрент бесплантно в хорошем качестве Описание: Фильм представляет собой экранизацию романа самого известного автора триллеров — Стивена Кинга. На этот раз картина повествует о ... 10 10 2
Торрент: Зарегистрирован [2020-07-18 11:52] · скачан: 16 раз
Статус: √ проверено
Размер: 3.01 GB
Как cкачать? Как скачать Тайное окно через торрент | UTorrent

% Раздел Тема Автор DL S | L
Фильмы 2001-2005 [ 1.46 GB ] Тайное окно / Secret Window [2004 HDRip by Dean24] Dean24 Скачать
1 | 0
Фильмы 2001-2005 [ 1.45 GB ] Тайное Окно / Secret Window [2004 BDRip] Trust Скачать
4 | 0
Фильмы [HD 720p, 1080p] (Хороший звук DUB, MVO) [ 8.96 GB ] Тайное окно / Secret Window [2004 BDRip 1080p] diletant Скачать
1 | 0
Фильмы 2001-2005 [ 1.46 GB ] Тайное окно / Secret Window [2004 ... BDRip] sasha060 Скачать
1 | 0

28-11-2019 20:33  

Отключить всю рекламу на сайте

    Дорогой пользователь! Огромная просьба, поблагодарите релизера, оцените раздачу и оставьте свои комментарий, если Вы скачали Тайное окно через торрент бесплатно! Внесите свою лепту в развитие PiratBit!
    Комментировать посты могут только пользователи прошедшие не сложную регистрацию
    Показать сообщения:    

    Тайное окно через торрент
    Скачать бесплатно Тайное окно
    Тайное окно скачать торрент
    Тайное окно смотреть онлайн
    Cкачать фильм Тайное окно бесплатно
    Тайное окно скачать торрент в хорошем качестве
    Тайное окно смотреть онлайн бесплатно в хорошем качестве


    Вы не можете начинать темы
    Вы не можете отвечать на сообщения
    Вы не можете редактировать свои сообщения
    Вы не можете удалять свои сообщения
    Вы не можете голосовать в опросах
    Вы не можете прикреплять файлы к сообщениям
    Вы можете скачивать файлы