Достать ножи: Стеклянная луковица

MVO

Добыча

Дубляж

Уэнсдэй

1 сезон

Тор

Дубляж

13 клиническая

1 сезон

Жестокая ночь

MVO

Одни из нас

1 сезон

Deluxe

pack

Рекомендуем

30

Пиратка

ВАЖНО

ВАЖНО

Ghostwire

Пиратка

jed

RePack

nioh2

RePack

RDR2

RePack

NEED FOR SPEED™ PAYBACK

RePack

скачать торрент

Кинопоиск HD

Острые козырьки 6 сезон

6 сезон

FAR CRY 6

RePack

скачать торрент

Лицензия

скачать торрент

MVO

1

1 сезон

скачать торрент

1 сезон

скачать торрент

Лицензия

  

Худеющий / Thinner (Том Холланд / Tom Holland) [1996, ужасы, триллер, BDRip 720p / 60 FPS, DVO (R5)]

Худеющий через торрент piratbit.org

Раздают: 9 [ 0 KB/s ]
Размер: 2.84 GB | Добавлен: 5 д. назад | Торрент скачан:52 раза
Смотреть онлайн | Скачать | Поддержите нас   

25-07-2020 11:12 Худеющий Скачать торрент  

Худеющий / Thinner
Год выпуска: 1996
Страна: США
Жанр: ужасы, триллер
Продолжительность: 01:32:49
Перевод: Профессиональный (двухголосый закадровый (R5)
Субтитры: русские, английские

Режиссер: Том Холланд / Tom Holland

rating

В ролях: Роберт Джон Бёрк, Джо Мантенья, Люсинда Дженни, Майкл Константин, Кари Вурер, Бетани Джои Ленц, Тайм Уинтерс, Ховард Эрскин, Терренс Гэрми, Рэнди Юргенсен

Описание: Адвокат Билли Хэллек, сбивший машиной цыганку, оправдывается перед судом благодаря своим связям. Но всех этих людей настигает суровая кара — страшные заклятия, превратившие жизнь каждого из них в особенный кошмар.

Качество: BDRip 720p / 60 FPS
Формат: MKV
Видео кодек: H.264
Аудио кодек: AC3
Видео: x264, 1280 x 720 ( 16:9 ), 4 000 kbps, 59,940 fps, ( 0.072 bpp)
Аудио#1: Русский, AC-3, 48.0 KHz, 6 ch, 384 Kbps
скриншот   скриншот   скриншот   скриншот   скриншот   скриншот  

Общее
Уникальный идентификатор : 210298401001635100159176958743539418666 (0x9E35FFAFB0DEC558BFD9FC47992D062A)
Полное имя : Z:\На заливку\Худеющий.1996.BDRip.720p.(60Fps).mkv
Формат : Matroska
Версия формата : Version 4
Размер файла : 2,84 Гбайт
Продолжительность : 1 ч. 32 м.
Общий поток : 4 384 Кбит/сек
Название фильма : Худеющий.1996.BDRip.720p.(60Fps)
Дата кодирования : UTC 2020-06-02 14:54:35
Программа кодирования : mkvmerge v7.2.0 ('On Every Street') 64bit built on Sep 13 2014 15:52:10
Библиотека кодирования : libebml v1.3.0 + libmatroska v1.4.1

Видео
Идентификатор : 1
Формат : AVC
Формат/Информация : Advanced Video Codec
Профиль формата : High@L4.1
Настройки формата : CABAC / 8 Ref Frames
Параметр CABAC формата : Да
Параметр RefFrames формата : 8 кадров
Идентификатор кодека : V_MPEG4/ISO/AVC
Продолжительность : 1 ч. 32 м.
Битрейт : 4 000 Кбит/сек
Ширина : 1 280 пикселей
Высота : 720 пикселей
Соотношение сторон : 16:9
Режим частоты кадров : Постоянный
Частота кадров : 59,940 кадров/сек
Цветовое пространство : YUV
Субдискретизация насыщенности : 4:2:0
Битовая глубина : 8 бит
Тип развёртки : Прогрессивная
Бит/(Пиксели*Кадры) : 0.072
Размер потока : 2,59 Гбайт (91%)
Библиотека кодирования : x264 core 148 r2638 7599210
Настройки программы : cabac=1 / ref=8 / deblock=1:0:0 / analyse=0x3:0x113 / me=umh / subme=9 / psy=1 / psy_rd=1.00:0.10 / mixed_ref=1 / me_range=32 / chroma_me=1 / trellis=2 / 8x8dct=1 / cqm=0 / deadzone=21,11 / fast_pskip=0 / chroma_qp_offset=-3 / threads=6 / lookahead_threads=1 / sliced_threads=0 / nr=0 / decimate=1 / interlaced=0 / bluray_compat=0 / constrained_intra=0 / bframes=16 / b_pyramid=2 / b_adapt=2 / b_bias=0 / direct=3 / weightb=1 / open_gop=0 / weightp=2 / keyint=250 / keyint_min=25 / scenecut=40 / intra_refresh=0 / rc_lookahead=40 / rc=2pass / mbtree=1 / bitrate=4000 / ratetol=1.0 / qcomp=0.60 / qpmin=0 / qpmax=69 / qpstep=4 / cplxblur=20.0 / qblur=0.5 / vbv_maxrate=14000 / vbv_bufsize=14000 / nal_hrd=none / filler=0 / ip_ratio=1.40 / aq=1:1.00
Язык : English
Default : Да
Forced : Нет

Аудио
Идентификатор : 2
Формат : AC-3
Формат/Информация : Audio Coding 3
Коммерческое название : Dolby Digital
Идентификатор кодека : A_AC3
Продолжительность : 1 ч. 32 м.
Вид битрейта : Постоянный
Битрейт : 384 Кбит/сек
Каналы : 6 каналов
Channel layout : L R C LFE Ls Rs
Частота : 48,0 КГц
Частота кадров : 31,250 кадров/сек (1536 SPF)
Метод сжатия : С потерями
Размер потока : 255 Мбайт (9%)
Заголовок : Двухголосый закадровый (R5), AC-3 384 Kbps 5.1
Язык : Russian
Service kind : Complete Main
Default : Да
Forced : Нет

Текст #1
Идентификатор : 3
Формат : UTF-8
Идентификатор кодека : S_TEXT/UTF8
Идентификатор кодека/Информация : UTF-8 Plain Text
Продолжительность : 1 ч. 27 м.
Битрейт : 74 бит/сек
Count of elements : 732
Размер потока : 47,6 Кбайт (0%)
Заголовок : Субтитры
Язык : Russian
Default : Нет
Forced : Нет

Текст #2
Идентификатор : 4
Формат : UTF-8
Идентификатор кодека : S_TEXT/UTF8
Идентификатор кодека/Информация : UTF-8 Plain Text
Продолжительность : 1 ч. 25 м.
Битрейт : 60 бит/сек
Count of elements : 960
Размер потока : 38,2 Кбайт (0%)
Заголовок : Субтитры
Язык : English
Default : Нет
Forced : Нет




Скачать Худеющий через торрент https://pic1.kartinco.top/images/12/lrfku.jpg Скачать, смотреть онлайн Худеющий бесплантно в хорошем качестве Описание: Адвокат Билли Хэллек, сбивший машиной цыганку, оправдывается перед судом благодаря своим связям. Но всех этих людей настигает ... 10 10 3
Торрент: Зарегистрирован [2023-01-23 10:11] · скачан: 52 раз
Статус: ? недооформлено
Размер: 2.84 GB
Как cкачать? Как скачать Худеющий через торрент | UTorrent




Последний раз редактировалось: alien2015 (2023-01-23 10:11), всего редактировалось 2 раз(а)

28-11-2019 20:33  


Отключить вcю реклaмy на сайте, в т.ч. и в плеере онлайн просмотра!

25-07-2020 12:44 Худеющий Скачать торрент  

Отличный фильм,по книге С.Кинга....Кто любит его творчество,смотрите смело....вам понравиться....



25-07-2020 13:32 Худеющий Скачать торрент  

интересный фильм, давно смотрел понравился



26-07-2020 11:16 Худеющий Скачать торрент  

Да, фильм огонь!



    Дорогой пользователь! Огромная просьба, поблагодарите релизера, оцените раздачу и оставьте свои комментарий, если Вы скачали Худеющий через торрент бесплатно!!
    Комментировать посты могут только пользователи прошедшие не сложную регистрацию
    Показать сообщения:    


    Худеющий через торрент
    Скачать бесплатно Худеющий
    Худеющий скачать торрент
    Худеющий смотреть онлайн
    Cкачать фильм Худеющий бесплатно
    Худеющий скачать торрент в хорошем качестве
    Худеющий смотреть онлайн бесплатно в хорошем качестве
    Вы не можете начинать темы
    Вы не можете отвечать на сообщения
    Вы не можете редактировать свои сообщения
    Вы не можете удалять свои сообщения
    Вы не можете голосовать в опросах
    Вы не можете прикреплять файлы к сообщениям
    Вы можете скачивать файлы
    Худеющий / Thinner [1996, ужасы, триллер, BDRip 720p / 60 FPS, DVO ] смотреть онлайн, скачать торрент picoco.icu