Лицензия

MVO

1

1 сезон

Лицензия

Лицензия

13

MVO

1 сезон

Deluxe Edition

pack

Рекомендуем

30

Repack

ВАЖНО

ВАЖНО

Ghostwire

RePack

jed

RePack

fifa19

RePack

RDR2

RePack

NEED FOR SPEED™ PAYBACK

RePack

Кинопоиск HD

 Острые козырьки 6 сезон

6 сезон

FAR CRY 6

RePack

Лицензия

MVO

1

1 сезон

1 сезон

Лицензия

  

Секретный фарватер / Серии 1-4 из 4 (Вадим Костроменко) [1986 г., Приключения, военный, экранизация, HDTV 1080i]

Секретный фарватер через торрент piratbit.org

Размер: 27.37 GB | Добавлен: 2 года 1 мес. назад | Торрент скачан:30 раз
Смотреть онлайн Секретный фарватер | Скачать   

26-07-2020 21:48 Секретный фарватер Скачать торрент  

Секретный фарватер
Год выпуска: 1986

Страна: СССР

Выпущено: Одесская киностудия

Жанр: Приключения, военный, экранизация

Продолжительность: 4 х ~ 01:03:00

Субтитры: отсутствуют

Перевод: Не требуется

Режиссер: Вадим Костроменко

rating

В ролях: Анатолий Котенёв, Лариса Гузеева, Вячеслав Богатырёв, Сергей Быстрицкий, Леонид Трутнев, Владимир Наумцев, Валерий Юрченко, Борис Борисов, Улдис Думпис, Видас Петкявичюс, Гедиминас Гирдвайнис, Юрис Горнавс, Арунас Сторпирштис, Станислав Рий, Андрей Градов, Евгений Цветков, Иван Мацкевич, Пётр Шерекин, Александр Жданов, Ирен Азер, Василий Векшин, Виктор Козачук, Виктор Пименов, Юрий Эллер, Сейдулла Молдаханов, Валерий Наконечный, Пётр Шидывар, Гиви Тохадзе

Описание: По мотивам романа Леонида Платова.
1944-й год... Год победоносного перелома в Великой Отечественной войне, но на Балтийском театре морских сражений пока тихо. Выполняя боевую задачу, командир торпедного катера Борис Шубин случайно обнаруживает секретный фарватер немецкой подводной лодки без опознавательных знаков. Непредвиденный случай забрасывает его на "Летучий голландец" и даёт возможность приоткрыть завесу строжайшей тайны Третьего Рейха, которая её окружает...
Качество: HDTV 1080i
Формат: MPEG
Видео: AVC, ~ 13.9 Мбит/с, 1920x1080
Аудио: Русский, MP2, 2 ch, 192 Кбит/сек
Видео
Идентификатор : 513 (0x201)
Идентификатор меню : 1 (0x1)
Формат : AVC
Формат/Информация : Advanced Video Codec
Профиль формата : High@L4
Настройки формата : CABAC / 4 Ref Frames
Параметр CABAC формата : Да
Параметр RefFrames формата : 4 кадра
Идентификатор кодека : 27
Продолжительность : 1 ч. 3 м.
Битрейт : 13,9 Мбит/сек
Ширина : 1920 пикселей
Высота : 1080 пикселей
Соотношение сторон : 16:9
Частота кадров : 25,000 кадров/сек
Стандарт вещания : Component
Цветовое пространство : YUV
Субдискретизация насыщенности : 4:2:0
Битовая глубина : 8 бит
Тип развёртки : Чересстрочная
Метод сохранения типа развёртки : Раздельные поля
Порядок развёртки : Верхнее поле первое
Бит/(Пиксели*Кадры) : 0.267
Размер потока : 6,12 Гбайт (94%)
Цветовой диапазон : Limited
Основные цвета : BT.709
Характеристики трансфера : BT.709
Коэффициенты матрицы : BT.709

Аудио
Идентификатор : 514 (0x202)
Идентификатор меню : 1 (0x1)
Формат : MPEG Audio
Версия формата : Version 1
Профиль формата : Layer 2
Идентификатор кодека : 3
Продолжительность : 1 ч. 3 м.
Вид битрейта : Постоянный
Битрейт : 192 Кбит/сек
Каналы : 2 канала
Частота : 48,0 КГц
Частота кадров : 41,667 кадра/сек (1152 SPF)
Метод сжатия : С потерями
Размер потока : 86,8 Мбайт (1%)
Язык : Russian

скриншот   скриншот   скриншот   скриншот   скриншот  




Скачать Секретный фарватер через торрент https://pic1.kartinco.top/images/12/ueoyu.jpg Скачать, смотреть онлайн Секретный фарватер бесплантно в хорошем качестве Описание: По мотивам романа Леонида Платова. 1944-й год... Год победоносного перелома в Великой Отечественной войне, но на Балтийском ... 10 10 4
Торрент: Зарегистрирован [2020-07-26 21:48] · скачан: 30 раз
Статус: √ проверено
Размер: 27.37 GB
Как cкачать? Как скачать Секретный фарватер через торрент | UTorrent

% Раздел Тема Автор DL S | L
Кино СССР [ 4.03 GB ] Секретный фарватер / Серии: 1-4 из 4 | | SATRip, AVC aleksan55 Скачать
1 | 0
Кино СССР [ 2.84 GB ] Секретный фарватер / Серии: 1-4 из 4 | | SATRip mihis Скачать
1 | 0

28-11-2019 20:33  

Отключить вcю реклaмy на сайте

27-07-2020 08:31 Секретный фарватер Скачать торрент  

Абажаю этот сериал.



    Дорогой пользователь! Огромная просьба, поблагодарите релизера, оцените раздачу и оставьте свои комментарий, если Вы скачали Секретный фарватер через торрент бесплатно!!
    Комментировать посты могут только пользователи прошедшие не сложную регистрацию
    Показать сообщения:    


    Секретный фарватер через торрент
    Скачать бесплатно Секретный фарватер
    Секретный фарватер скачать торрент
    Секретный фарватер смотреть онлайн
    Cкачать фильм Секретный фарватер бесплатно
    Секретный фарватер скачать торрент в хорошем качестве
    Секретный фарватер смотреть онлайн бесплатно в хорошем качестве
    Вы не можете начинать темы
    Вы не можете отвечать на сообщения
    Вы не можете редактировать свои сообщения
    Вы не можете удалять свои сообщения
    Вы не можете голосовать в опросах
    Вы не можете прикреплять файлы к сообщениям
    Вы можете скачивать файлы