2 сезон

iTunes

WEBRip

1

2 сезон

iTunes

1 сезон

1 сезон

RePack

30

Новинка

ВАЖНО

ИГРА 18+

pack

RePack

MK11
pack

Легкие деньги

RePack

jed

RePack

fifa19

RePack

RDR2

RePack

NEED FOR SPEED™ PAYBACK

4 сезон

9 сезон

Бесстыжие 9 сезон

Все сериалы

все сериалы на PB.wtf

RePack

FAR CRY 5

Anonymous, доброй ночи, мы не успеваем собрать деньги на оплату серверов за февраль, помогите нам пожалуйста в это трудное время. В качестве благодарности мы отключим Вам всю рекламу на сайте (укажите свой ник в строку Ваше имя)!

×
  
Magnet ссылка

Мой создатель / Творець / Archive (Гэвин Ротери) [2020, Фантастика, WEB-DL 1080p] [Ukr DUB] piratbit.org

Мой создатель через торрент piratbit.org

Раздают: 2 [ 0 KB/s ]
Размер: 7.65 GB | Добавлен: 7 мес. назад | Торрент скачан:55 раз
Скачать  

27-07-2020 11:38 Мой создатель Скачать торрент  

Мой создатель / Творець / Archive
Год выпуска: 2020
Страна: Великобритания, Венгрия, США
Жанр: Фантастика
Продолжительность: 01:49:17
✦ Перевод: Украинский (дублированный)

Субтитры: английские

Режиссер: Гэвин Ротери

В ролях: Рона Митра, Тео Джеймс, Тоби Джонс, Стэйси Мартин, Питер Фердинандо, Ричард Гловер, Ханс Петерсон, Джереми Вилер, Тимея Мадай Кинга

Описание: Действие развернётся в недалёком будущем. Молодой учёный Джордж Альмор в секретной лаборатории работает над искусственным интеллектом, который бы соответствовал человеческому разуму. В остальное время герой пытается поддерживать систему безопасности лаборатории, грозящую выйти из строя в любой момент, а также конструирует специального робота, намереваясь пересадить в него сознание своей погибшей жены. Когда связь с лабораторией пропадает, руководство корпорации отправляет группу зачистки, чтобы проверить работу Джорджа, а заодно ликвидировать потенциальную угрозу, если она будет обнаружена...

rating скриншот  

Качество: WEB-DL 1080p
Формат: MKV
Видео: MPEG-4 AVC, 9184 Кбит/с, 1920x1080
Аудио: Украинский (AC3, 2 ch, 192 Кбит/с)
Аудио: английский (E-AC3, 6 ch, 640 Кбит/с)
скриншот  скриншот  скриншот  
General
Unique ID : 192898160524162582226802424743390814869 (0x911ED5986CC91116E3B6A60624D32295)
Complete name : Z:\Фільми в HD\Фантастика\Archive (2020) WEB-DL 1080p [UKR_ENG] [Hurtom].mkv
Format : Matroska
Format version : Version 4
File size : 7.65 GiB
Duration : 1 h 49 min
Overall bit rate : 10.0 Mb/s
Movie name : Творець / Archive (2020) WEB-DL 1080p [UKR_ENG] [Hurtom]
Encoded date : UTC 2020-07-26 06:08:11
Writing application : mkvmerge v46.0.0 ('No Deeper Escape') 64-bit
Writing library : libebml v1.3.10 + libmatroska v1.5.2
Cover : Yes
Attachments : cover.jpg

Video
ID : 1
Format : AVC
Format/Info : Advanced Video Codec
Format profile : High@L4
Format settings : CABAC / 4 Ref Frames
Format settings, CABAC : Yes
Format settings, Reference : 4 frames
Codec ID : V_MPEG4/ISO/AVC
Duration : 1 h 49 min
Bit rate mode : Constant
Bit rate : 9 184 kb/s
Nominal bit rate : 10 000 kb/s
Width : 1 920 pixels
Height : 1 080 pixels
Display aspect ratio : 16:9
Frame rate mode : Constant
Frame rate : 23.976 (24000/1001) FPS
Color space : YUV
Chroma subsampling : 4:2:0
Bit depth : 8 bits
Scan type : Progressive
Bits/(Pixel*Frame) : 0.185
Stream size : 7.01 GiB (92%)
Language : English
Default : Yes
Forced : No
Color range : Limited
Color primaries : BT.709
Transfer characteristics : BT.709
Matrix coefficients : BT.709

Audio #1
ID : 2
Format : AC-3
Format/Info : Audio Coding 3
Commercial name : Dolby Digital
Codec ID : A_AC3
Duration : 1 h 49 min
Bit rate mode : Constant
Bit rate : 192 kb/s
Channel(s) : 2 channels
Channel layout : L R
Sampling rate : 48.0 kHz
Frame rate : 31.250 FPS (1536 SPF)
Compression mode : Lossy
Stream size : 150 MiB (2%)
Title : Dub, AC3 2.0 192 Kbps
Language : Ukrainian
Service kind : Complete Main
Default : Yes
Forced : Yes

Audio #2
ID : 3
Format : E-AC-3
Format/Info : Enhanced AC-3
Commercial name : Dolby Digital Plus
Codec ID : A_EAC3
Duration : 1 h 49 min
Bit rate mode : Constant
Bit rate : 640 kb/s
Channel(s) : 6 channels
Channel layout : L R C LFE Ls Rs
Sampling rate : 48.0 kHz
Frame rate : 31.250 FPS (1536 SPF)
Compression mode : Lossy
Stream size : 500 MiB (6%)
Title : Original, AC3 5.1 640 kbps
Language : English
Service kind : Complete Main
Default : No
Forced : No

Text #1
ID : 4
Format : UTF-8
Codec ID : S_TEXT/UTF8
Codec ID/Info : UTF-8 Plain Text
Duration : 1 h 41 min
Bit rate : 42 b/s
Count of elements : 1068
Stream size : 31.4 KiB (0%)
Title : Full
Language : English
Default : No
Forced : No

Text #2
ID : 5
Format : UTF-8
Codec ID : S_TEXT/UTF8
Codec ID/Info : UTF-8 Plain Text
Duration : 1 h 41 min
Bit rate : 45 b/s
Count of elements : 1184
Stream size : 34.0 KiB (0%)
Title : SDH
Language : English
Default : No
Forced : No

piratbit.org



Скачать Мой создатель через торрент https://i112.fastpic.ru/big/2020/0727/c4/7fb5bdb8c47dfe67c206688c44bebec4.jpg Скачать фильм Мой создатель через торрент бесплантно в хорошем качестве Описание: Действие развернётся в недалёком будущем. Молодой учёный Джордж Альмор в секретной лаборатории работает над искусственным ... 10 10 9
Info! Золотая раздача, скачанное не засчитывается.
Торрент: Зарегистрирован [2020-07-27 11:38] · скачан: 55 раз
Статус: T временная
Размер: 7.65 GB
Как cкачать? Как скачать Мой создатель через торрент | UTorrent

28-11-2019 20:33  

Отключить всю рекламу на сайте

    Дорогой пользователь! Огромная просьба, поблагодарите релизера, оцените раздачу и оставьте свои комментарий, если Вы скачали Мой создатель через торрент бесплатно! Внесите свою лепту в развитие PiratBit!
    Комментировать посты могут только пользователи прошедшие не сложную регистрацию
    Показать сообщения:    

    Мой создатель через торрент
    Скачать бесплатно Мой создатель
    Мой создатель скачать торрент
    Мой создатель смотреть онлайн
    Cкачать фильм Мой создатель бесплатно
    Мой создатель скачать торрент в хорошем качестве
    Мой создатель смотреть онлайн бесплатно в хорошем качестве


    Вы не можете начинать темы
    Вы не можете отвечать на сообщения
    Вы не можете редактировать свои сообщения
    Вы не можете удалять свои сообщения
    Вы не можете голосовать в опросах
    Вы не можете прикреплять файлы к сообщениям
    Вы можете скачивать файлы