2 сезон

iTunes

WEBRip

1

2 сезон

iTunes

1 сезон

1 сезон

RePack

30

Ultimate

ВАЖНО

ИГРА 18+

pack

RePack

MK11
pack

Легкие деньги

RePack

jed

RePack

fifa19

RePack

RDR2

RePack

NEED FOR SPEED™ PAYBACK

4 сезон

9 сезон

Бесстыжие 9 сезон

Все сериалы

все сериалы на PB.wtf

RePack

FAR CRY 5

Anonymous, доброй ночи, мы не успеваем собрать деньги на оплату серверов за февраль, помогите нам пожалуйста в это трудное время. В качестве благодарности мы отключим Вам всю рекламу на сайте (укажите свой ник в строку Ваше имя)!

×
  
Magnet ссылка

Мой шпион / Мій шпигун / My Spy (Питер Сигал) [2020, боевик, комедия, семейный, BDRip 1080p] [Ukr DUB] piratbit.org

Мой шпион через торрент piratbit.org

Размер: 8.61 GB | Добавлен: 7 мес. назад | Торрент скачан:31 раз
Скачать  

27-07-2020 11:46 Мой шпион Скачать торрент  

Мой шпион / Мій шпигун / My Spy
Год выпуска: 2020
Страна: США
Жанр: боевик, комедия, семейный
Продолжительность: 01:39:20
✦ Перевод: Украинский (дублированный)

Субтитры: английские

Режиссер: Питер Сигал

В ролях: Дэйв Батиста, Хлоя Коулмэн, Париса Фитц-Хенли, Кристен Шаал, Грег Брайк, Кен Жонг, Никола Коррейя-Дамуд, Девере Роджерс, Ной Дэнби, Вьеслав Кристиан

Описание: Спецагент Джей-Джей с треском провалил важную миссию. Его планируют лишить за это работы, поэтому дают испытательное задание. Нужно всего лишь следить за одной обычной семьей. Кто же знал, что 9-летняя Софи окажется сообразительней многих взрослых...

ratingскриншот  

Качество: BDRip 1080p
Формат: MKV
Видео: h.264 10.7 Mb/s, 1920x804
Аудио 1: Украинский (AC3, 2 ch, 192 Кбит/с)
Аудио 2: английский (DTS, 6 ch, 1509 Кбит/с)
скриншот   скриншот   скриншот  

General
Unique ID : 290883362614104495895476717810024634317 (0xDAD6190BED8B6D2AA639D77C929AD7CD)
Complete name : E:\Комедія\My Spy (2020) BDRip 1080p [UKR_ENG] [Hurtom].mkv
Format : Matroska
Format version : Version 4
File size : 8.61 GiB
Duration : 1 h 39 min
Overall bit rate : 12.3 Mb/s
Movie name : Мій шпигун / My Spy (2020) BDRip 1080p [UKR_ENG] [Hurtom]
Encoded date : UTC 2020-07-23 20:18:18
Writing application : mkvmerge v46.0.0 ('No Deeper Escape') 64-bit
Writing library : libebml v1.3.10 + libmatroska v1.5.2
Cover : Yes
Attachments : cover.jpg

Video
ID : 1
Format : AVC
Format/Info : Advanced Video Codec
Format profile : High@L4.1
Format settings : CABAC / 5 Ref Frames
Format settings, CABAC : Yes
Format settings, Reference : 5 frames
Codec ID : V_MPEG4/ISO/AVC
Duration : 1 h 39 min
Bit rate : 10.7 Mb/s
Width : 1 920 pixels
Height : 804 pixels
Display aspect ratio : 2.40:1
Frame rate mode : Constant
Frame rate : 23.976 (24000/1001) FPS
Color space : YUV
Chroma subsampling : 4:2:0
Bit depth : 8 bits
Scan type : Progressive
Bits/(Pixel*Frame) : 0.289
Stream size : 7.42 GiB (86%)
Writing library : x264 core 157 r2958 57baac4
Encoding settings : cabac=1 / ref=5 / deblock=1:-3:-3 / analyse=0x3:0x113 / me=umh / subme=11 / psy=1 / psy_rd=1.00:0.00 / mixed_ref=1 / me_range=48 / chroma_me=1 / trellis=2 / 8x8dct=1 / cqm=0 / deadzone=21,11 / fast_pskip=1 / chroma_qp_offset=-2 / threads=18 / lookahead_threads=4 / sliced_threads=0 / nr=0 / decimate=1 / interlaced=0 / bluray_compat=0 / constrained_intra=0 / bframes=10 / b_pyramid=2 / b_adapt=2 / b_bias=0 / direct=3 / weightb=1 / open_gop=0 / weightp=2 / keyint=240 / keyint_min=24 / scenecut=40 / intra_refresh=0 / rc_lookahead=60 / rc=2pass / mbtree=1 / bitrate=10700 / ratetol=1.0 / qcomp=0.60 / qpmin=0 / qpmax=69 / qpstep=4 / cplxblur=20.0 / qblur=0.5 / ip_ratio=1.40 / aq=1:1.00
Language : English
Default : Yes
Forced : No
Color range : Limited
Color primaries : BT.709
Transfer characteristics : BT.709
Matrix coefficients : BT.709

Audio #1
ID : 2
Format : AC-3
Format/Info : Audio Coding 3
Commercial name : Dolby Digital
Codec ID : A_AC3
Duration : 1 h 39 min
Bit rate mode : Constant
Bit rate : 192 kb/s
Channel(s) : 2 channels
Channel layout : L R
Sampling rate : 48.0 kHz
Frame rate : 31.250 FPS (1536 SPF)
Compression mode : Lossy
Stream size : 137 MiB (2%)
Title : Dub, AC3 2.0 192 Kbps
Language : Ukrainian
Service kind : Complete Main
Default : Yes
Forced : Yes

Audio #2
ID : 3
Format : DTS
Format/Info : Digital Theater Systems
Codec ID : A_DTS
Duration : 1 h 39 min
Bit rate mode : Constant
Bit rate : 1 509 kb/s
Channel(s) : 6 channels
Channel layout : C L R Ls Rs LFE
Sampling rate : 48.0 kHz
Frame rate : 93.750 FPS (512 SPF)
Bit depth : 16 bits
Compression mode : Lossy
Stream size : 1.05 GiB (12%)
Title : Original, DTS 5.1 1509 kbps
Language : English
Default : No
Forced : No

Text
ID : 4
Format : UTF-8
Codec ID : S_TEXT/UTF8
Codec ID/Info : UTF-8 Plain Text
Duration : 1 h 32 min
Bit rate : 71 b/s
Count of elements : 1501
Stream size : 48.4 KiB (0%)
Language : English
Default : No
Forced : No

Menu
00:00:00.000 : en:Chapter 1
00:08:00.145 : en:Chapter 2
00:17:37.890 : en:Chapter 3
00:25:14.220 : en:Chapter 4
00:35:04.977 : en:Chapter 5
00:43:00.535 : en:Chapter 6
00:51:27.125 : en:Chapter 7
01:00:03.557 : en:Chapter 8
01:08:10.294 : en:Chapter 9
01:14:57.534 : en:Chapter 10
01:22:03.919 : en:Chapter 11
01:31:37.825 : en:Chapter 12

piratbit.org



Скачать Мой шпион через торрент https://i112.fastpic.ru/big/2020/0727/15/7a9a2c648988977886454746b977f715.jpg Скачать фильм Мой шпион через торрент бесплантно в хорошем качестве Описание: Спецагент Джей-Джей с треском провалил важную миссию. Его планируют лишить за это работы, поэтому дают испытательное задание. ... 10 10 5
Info! Золотая раздача, скачанное не засчитывается.
Торрент: Зарегистрирован [2020-07-27 11:46] · скачан: 31 раз
Статус: √ проверено
Размер: 8.61 GB
Как cкачать? Как скачать Мой шпион через торрент | UTorrent

% Раздел Тема Автор DL S | L
Фильмы с украинским озвучиванием [ 1.95 GB ] Мой шпион / Мій шпигун / My Spy [2020 BDRip-AVC] [Ukr DUB] killermax2013 Скачать
1 | 0

28-11-2019 20:33  

Отключить всю рекламу на сайте

27-07-2020 15:48 Мой шпион Скачать торрент  

Я понимаю, для детей, но какое же это днище (от кривляний и низкокачественной актерской игры воротит) и это уже по трейлеру видно.

Похоже авторы считают всех детей за имбецилов, если пытаются подобный "шедевр" им втюхать.


piratbit.org



    Дорогой пользователь! Огромная просьба, поблагодарите релизера, оцените раздачу и оставьте свои комментарий, если Вы скачали Мой шпион через торрент бесплатно! Внесите свою лепту в развитие PiratBit!
    Комментировать посты могут только пользователи прошедшие не сложную регистрацию
    Показать сообщения:    

    Мой шпион через торрент
    Скачать бесплатно Мой шпион
    Мой шпион скачать торрент
    Мой шпион смотреть онлайн
    Cкачать фильм Мой шпион бесплатно
    Мой шпион скачать торрент в хорошем качестве
    Мой шпион смотреть онлайн бесплатно в хорошем качестве


    Вы не можете начинать темы
    Вы не можете отвечать на сообщения
    Вы не можете редактировать свои сообщения
    Вы не можете удалять свои сообщения
    Вы не можете голосовать в опросах
    Вы не можете прикреплять файлы к сообщениям
    Вы можете скачивать файлы