Ссылка на приватное зеркало всего за 1$. Внимание количество ограничено!!!

iTunes

iTunes

iTunes

1

iTunes

iTunes

iTunes

WEBRip

iTunes

30
pack

$ от Little Big

ВАЖНО

!!Акция!!

Alien_RageХит недели

RePack

Resident Evil 21

ИГРА 18+

pack

RePack

jed

!!Акция!!

Alien_Rage

RePack

fifa19

RePack

Assassins Creed: Odyssey

RePack

NEED FOR SPEED™ PAYBACK

4 сезон

9 сезон

Бесстыжие 9 сезон

Все сериалы

все сериалы на PB.wtf

RePack

FAR CRY 5
  

Босх / Бош / Bosch / Сезон: 5 / Серия: 1-4 из 10 (Алекс Закржевский, Дэйзи фон Шерлер Майер, Лаура Белси) [2019, драма, детектив, WEB-DL 1080p] DUB [True Dubbing Studio] piratbit.org

Босх через торрент piratbit.org

Раздают: 2 [ 0 KB/s ]
Размер: 12.86 GB | Добавлен: 1 д. 22 ч. назад | Торрент скачан:2 раза
Скачать  

02-08-2020 08:38 Босх Скачать торрент  

Босх | Бош | Bosch
Год выпуска: 2019
Страна: США
Жанр: драма, детектив
Продолжительность: ~ 00:45:00
Перевод: Дублированный | True Dubbing Studio
Субтитры: Russian (Full), English (SDH)

Режиссер: Алекс Закржевский, Дэйзи фон Шерлер Майер, Лаура Белси, Патрик Кейди, Нима Барнетт

rating

В ролях: Титус Уэлливер, Джэми Гектор, Эми Акино, Эми Прайс-Фрэнсис, Энни Вершинг, Скотт Уилсон, Лэнс Реддик, Алан Розенберг, Валери Крус, Абрахам Бенруби, Джейми МакШейн, Эрик Ладин, Скотт Клейс, Пол Винсент О`Коннор, Арлин Серда, Грегори Скотт Камминс, Трой Эванс, Мишель Н. Картер

Описание: Сериал повествует о Гарри Босхе, детективе убойного отдела, который трудится во славу полиции Лос-Анджелеса. Босх расследует дело всей своей жизни, которое случается у каждого копа и донимает его до потери сознания...

Качество: WEB-DL 1080p
Формат: MKV

Видео: 1920x1080 at 23.976 fps, MPEG-4 AVC, ~9200 kbps avg
Аудио#1 Russian: 48 kHz, AC3, 2/0 (L,R) ch, ~192 kbps avg |Дубляж, SPIKE / True Dubbing Studio|
Аудио#2 English: скриншот   48 kHz, EAC3, 3/2 (L,C,R,l,r) + LFE ch, ~640 kbps avg
скриншот  скриншот  скриншот  скриншот  скриншот  

Общее
Уникальный идентификатор : 233628975773848043223165074594955730841 (0xAFC34DD5097C165591011182FEC31F99)
Полное имя : C:\Bosch.S05.1080p.AMZN.WEB-DL.Rus.Eng_TeamHD\Bosch.S05E01.Two.Kinds.of.Truth.1080p.AMZN.WEB-DL.Rus.Eng_TeamHD.mkv
Формат : Matroska
Версия формата : Version 4
Размер файла : 3,44 Гбайт
Продолжительность : 48 м. 56 с.
Общий поток : 10,1 Мбит/сек
Название фильма : Bosch S05E01 - ReJliz TeamHD by BenderBEST
Дата кодирования : UTC 2020-08-01 19:32:52
Программа кодирования : mkvmerge v8.3.0 ('Over the Horizon') 64bit
Библиотека кодирования : libebml v1.3.1 + libmatroska v1.4.2

Видео
Идентификатор : 1
Формат : AVC
Формат/Информация : Advanced Video Codec
Профиль формата : High@L4
Настройки формата : CABAC / 4 Ref Frames
Параметр CABAC формата : Да
Параметр RefFrames формата : 4 кадра
Идентификатор кодека : V_MPEG4/ISO/AVC
Продолжительность : 48 м. 56 с.
Вид битрейта : Постоянный
Битрейт : 9233 Кбит/сек
Номинальный битрейт : 10000 Кбит/сек
Ширина : 1920 пикселей
Высота : 1080 пикселей
Соотношение сторон : 16:9
Режим частоты кадров : Постоянный
Частота кадров : 23,976 (24000/1001) кадра/сек
Цветовое пространство : YUV
Субдискретизация насыщенности : 4:2:0
Битовая глубина : 8 бит
Тип развёртки : Прогрессивная
Бит/(Пиксели*Кадры) : 0.186
Размер потока : 3,16 Гбайт (92%)
Язык : English
Default : Да
Forced : Да
Цветовой диапазон : Limited
Основные цвета : BT.709
Характеристики трансфера : BT.709
Коэффициенты матрицы : BT.709

Аудио #1
Идентификатор : 2
Формат : AC-3
Формат/Информация : Audio Coding 3
Коммерческое название : Dolby Digital
Идентификатор кодека : A_AC3
Продолжительность : 48 м. 56 с.
Вид битрейта : Постоянный
Битрейт : 192 Кбит/сек
Каналы : 2 канала
ChannelLayout : L R
Частота : 48,0 КГц
Частота кадров : 31,250 кадров/сек (1536 SPF)
Битовая глубина : 16 бит
Метод сжатия : С потерями
Размер потока : 67,2 Мбайт (2%)
Заголовок : AC3 2.0 @ 192 kbps - DUB, SPIKE / True Dubbing Studio
Язык : Russian
ServiceKind/String : Complete Main
Default : Да
Forced : Да

Аудио #2
Идентификатор : 3
Формат : E-AC-3
Формат/Информация : Enhanced AC-3
Коммерческое название : Dolby Digital Plus
Идентификатор кодека : A_EAC3
Продолжительность : 48 м. 56 с.
Вид битрейта : Постоянный
Битрейт : 640 Кбит/сек
Каналы : 6 каналов
ChannelLayout : L R C LFE Ls Rs
Частота : 48,0 КГц
Частота кадров : 31,250 кадров/сек (1536 SPF)
Метод сжатия : С потерями
Размер потока : 224 Мбайт (6%)
Заголовок : EAC3 5.1 @ 640 kbps
Язык : English
ServiceKind/String : Complete Main
Default : Нет
Forced : Нет

Текст #1
Идентификатор : 4
Формат : UTF-8
Идентификатор кодека : S_TEXT/UTF8
Идентификатор кодека/Информация : UTF-8 Plain Text
Продолжительность : 47 м. 3 с.
Битрейт : 84 бит/сек
ElementCount : 545
Размер потока : 29,0 Кбайт (0%)
Заголовок : Full
Язык : Russian
Default : Нет
Forced : Нет

Текст #2
Идентификатор : 5
Формат : UTF-8
Идентификатор кодека : S_TEXT/UTF8
Идентификатор кодека/Информация : UTF-8 Plain Text
Продолжительность : 12 с. 179 мс.
Битрейт : 103 бит/сек
ElementCount : 5
Размер потока : 157 байт (0%)
Заголовок : Forced
Язык : English
Default : Нет
Forced : Нет

Текст #3
Идентификатор : 6
Формат : UTF-8
Идентификатор кодека : S_TEXT/UTF8
Идентификатор кодека/Информация : UTF-8 Plain Text
Продолжительность : 47 м. 2 с.
Битрейт : 62 бит/сек
ElementCount : 745
Размер потока : 21,5 Кбайт (0%)
Заголовок : SDH
Язык : English
Default : Нет
Forced : Нет

Меню
00:00:00.000 : en:Amazon Original
00:00:05.000 : en:Previously On
00:02:26.000 : en:Bosch is up to something
00:08:19.000 : en:Maddie is worried about her father
00:09:09.000 : en:Bosch breaks the rules
00:14:19.000 : en:Opening Credits
00:15:21.000 : en:Staking out the drug store
00:16:57.000 : en:Checking into old cases
00:18:12.000 : en:Where is Jose?
00:19:35.000 : en:A new case
00:20:00.000 : en:Waiting for Jose
00:20:18.000 : en:A code 2-11 in progress
00:24:02.000 : en:The hunt continues
00:29:11.000 : en:Irving gets the update
00:30:22.000 : en:Gathering more evidence
00:36:30.000 : en:Maddie looks into old cases
00:37:17.000 : en:Searching for Jose's son
00:39:36.000 : en:Maddie watches an old police interview
00:42:05.000 : en:There are two kinds of truths
00:46:24.000 : en:All that matters is that you came back
00:47:18.000 : en:End Credits

Когда раздача ведётся путём добавления новых серий, при каждом добавлении создётся новый торрент. Чтобы начать докачку новой серии, пользователям необходимо сделать следующее:
(1) остановить скачивание,
(2) удалить старый торрент у себя из клиента (старые серии удалять не надо),
(3) скачать новый торрент и запустить его у себя в клиенте вместо старого, при этом указать клиенту путь в старую папку, куда и должно происходить скачивание новых серий.
Ваш клиент при этом должен произвести хеширование (проверку) старой папки (если не производит сам - помогите ему сделать это), и будет докачивать только те серии, которых у вас ещё нет. Старые серии при этом не удаляются, а продолжают раздаваться!
Eсли вы уже удалили старые серии, то предотвратить повторную закачку старых серий можно, отжав галочку в соответсвующих местах при запуске нового торрента. По возможности, желательно не удалять старые серии как можно дольше, чтобы релизёр не столько продолжал раздавать старые серии, а смог сконцентрироваться на новых.

piratbit.org



Скачать Босх через торрент http://c.radikal.ru/c30/1905/3c/2b5dfb10f087.jpg Скачать фильм Босх через торрент бесплантно в хорошем качестве Описание: Сериал повествует о Гарри Босхе, детективе убойного отдела, который трудится во славу полиции Лос-Анджелеса. Босх расследует дело ... 10 10 4
Торрент: Зарегистрирован [2020-08-12 18:00] · скачан: 2 раз
Статус: √ проверено
Размер: 12.86 GB
Как cкачать? Как скачать Босх через торрент | qTorrent

28-11-2019 20:33  

Отключить всю рекламу на сайте

    Дорогой пользователь! Огромная просьба, поблагодарите релизера, оцените раздачу и оставьте свои комментарий, если Вы скачали Босх через торрент бесплатно! Внесите свою лепту в развитие PiratBit!
    Комментировать посты могут только пользователи прошедшие не сложную регистрацию
    Показать сообщения:    

    Босх через торрент
    Скачать бесплатно Босх
    Босх скачать торрент
    Босх смотреть онлайн
    Cкачать фильм Босх бесплатно
    Босх скачать торрент в хорошем качестве
    Босх смотреть онлайн бесплатно в хорошем качестве


    Вы не можете начинать темы
    Вы не можете отвечать на сообщения
    Вы не можете редактировать свои сообщения
    Вы не можете удалять свои сообщения
    Вы не можете голосовать в опросах
    Вы не можете прикреплять файлы к сообщениям
    Вы можете скачивать файлы