Ссылка на приватное зеркало всего за 1$. Внимание количество ограничено!!!

iTunes

iTunes

iTunes

1

iTunes

iTunes

iTunes

WEBRip

iTunes

30
pack

$ от Little Big

ВАЖНО

!!Акция!!

Alien_RageХит недели

RePack

Resident Evil 21

ИГРА 18+

pack

RePack

jed

!!Акция!!

Alien_Rage

RePack

fifa19

RePack

Assassins Creed: Odyssey

RePack

NEED FOR SPEED™ PAYBACK

4 сезон

9 сезон

Бесстыжие 9 сезон

Все сериалы

все сериалы на PB.wtf

RePack

FAR CRY 5
  

Разрушители / Wreckers (Дикшина Худ) [2011, драма, WEB-DL 1080p] [DVO] [iTunes] piratbit.org

Разрушители через торрент piratbit.org

Раздают: 7 [ 2 KB/s ]
Размер: 3.48 GB | Добавлен: 12 д. назад | Торрент скачан:75 раз
Скачать  

02-08-2020 14:01 Разрушители Скачать торрент  

Разрушители / Wreckers Год выхода: 2011
Жанр: драма
Страна: Великобритания
Студия: Likely Story
Продолжительность: 01:21:03
Перевод: Профессиональный (двухголосый закадровый) | [iTunes]

Субтитры: русские (х2), английские

Режиссер: Дикшина Худ

В ролях: Клер Фой, Бенедикт Камбербэтч, Шон Эванс, Питер МакДональд, Шинед Мэтьюз, Джун Уотсон, Николя Грин, Джорджи Смит, Эдвард Харрисон, Гарри Маршалл и другие.

О фильме:
Молодая семья Дон и Дэвид приезжают в деревню, где прошло детство Дэвида. Но их идиллическое существование нарушает внезапный визит его брата Ника, солдата в отпуске. Присутствие Ника накладывает отпечаток на взаимоотношения пары. Узнавая подробности тяжёлого детства братьев, Дон начинает задаваться вопросом, насколько хорошо она знает своего мужа.

Дезориентированная изменчивостью Дэвида, Дон оказывается замешана в странной напряженности между братьями. Она тоже вынуждена лгать, достигая тёмных глубин в своей борьбе за возвращение мужа.



Качество видео: WEB-DL 1080p
Формат видео: MKV
Видео: MPEG-4 AVC, 5106 Кбит/с, 1920x1038
Аудио 1: 48 kHz, AC3 Dolby Digital, 3/2 (L,C,R,l,r) + LFE ch, ~384 kbps | RUS
Аудио 2: 48 kHz, AC3 Dolby Digital, 3/2 (L,C,R,l,r) + LFE ch, ~384 kbps | ENG
Complete name : Wreckers.2011.1080p.WEB-DL.ELEKTRI4KA.UNIONGANG.mkv
Format : Matroska
Format version : Version 4 / Version 2
File size : 3.48 GiB
Duration : 1 h 24 min
Overall bit rate : 5 876 kb/s
Movie name : .ELEKTRI4KA.UNIONGANG.
Encoded date : UTC 2020-08-01 21:17:01
Writing application : mkvmerge v8.3.0 ('Over the Horizon') 64bit
Writing library : libebml v1.3.1 + libmatroska v1.4.2

Video
ID : 1
Format : AVC
Format/Info : Advanced Video Codec
Format profile : High@L4
Format settings, CABAC : Yes
Format settings, Reference frames : 4 frames
Codec ID : V_MPEG4/ISO/AVC
Duration : 1 h 24 min
Bit rate : 5 106 kb/s
Width : 1 920 pixels
Height : 1 038 pixels
Display aspect ratio : 1.85:1
Frame rate mode : Constant
Frame rate : 23.976 (23976/1000) FPS
Color space : YUV
Chroma subsampling : 4:2:0
Bit depth : 8 bits
Scan type : Progressive
Bits/(Pixel*Frame) : 0.107
Stream size : 3.02 GiB (87%)
Title : .ELEKTRI4KA.UNIONGANG.
Language : English
Default : Yes
Forced : No
Color range : Limited
Color primaries : BT.709
Transfer characteristics : BT.709
Matrix coefficients : BT.709

Audio #1
ID : 2
Format : AC-3
Format/Info : Audio Coding 3
Mode extension : CM (complete main)
Format settings, Endianness : Big
Codec ID : A_AC3
Duration : 1 h 24 min
Bit rate mode : Constant
Bit rate : 384 kb/s
Channel(s) : 6 channels
Channel positions : Front: L C R, Side: L R, LFE
Sampling rate : 48.0 kHz
Frame rate : 31.250 FPS (1536 spf)
Bit depth : 16 bits
Compression mode : Lossy
Stream size : 232 MiB (7%)
Title : itunes
Language : Russian
Default : Yes
Forced : No

Audio #2
ID : 3
Format : AC-3
Format/Info : Audio Coding 3
Mode extension : CM (complete main)
Format settings, Endianness : Big
Codec ID : A_AC3
Duration : 1 h 24 min
Bit rate mode : Constant
Bit rate : 384 kb/s
Channel(s) : 6 channels
Channel positions : Front: L C R, Side: L R, LFE
Sampling rate : 48.0 kHz
Frame rate : 31.250 FPS (1536 spf)
Bit depth : 16 bits
Compression mode : Lossy
Stream size : 233 MiB (7%)
Title : Original
Language : English
Default : No
Forced : No

Text #1
ID : 4
Format : UTF-8
Codec ID : S_TEXT/UTF8
Codec ID/Info : UTF-8 Plain Text
Duration : 1 h 20 min
Bit rate : 55 b/s
Count of elements : 457
Stream size : 32.7 KiB (0%)
Title : R5
Language : Russian
Default : No
Forced : No

Text #2
ID : 5
Format : UTF-8
Codec ID : S_TEXT/UTF8
Codec ID/Info : UTF-8 Plain Text
Duration : 1 h 20 min
Bit rate : 57 b/s
Count of elements : 377
Stream size : 34.1 KiB (0%)
Title : Notabenoid
Language : Russian
Default : No
Forced : No

Text #3
ID : 6
Format : UTF-8
Codec ID : S_TEXT/UTF8
Codec ID/Info : UTF-8 Plain Text
Duration : 1 h 20 min
Bit rate : 32 b/s
Count of elements : 370
Stream size : 19.0 KiB (0%)
Title : Original
Language : English
Default : No
Forced : No

Menu
00:00:00.000 : en:Chapter 1
00:11:12.000 : en:Chapter 2
00:20:50.000 : en:Chapter 3
00:31:55.000 : en:Chapter 4
00:40:37.000 : en:Chapter 5
00:50:30.000 : en:Chapter 6
01:00:14.000 : en:Chapter 7
01:10:26.000 : en:Chapter 8
01:20:01.000 : en:Chapter 9
01:22:02.000 : en:Credits
скриншот  скриншот  скриншот  
piratbit.org



Скачать Разрушители через торрент http://i103.fastpic.ru/big/2017/1219/94/3df1a1d658959e2031c83566b4ebb494.jpg Скачать фильм Разрушители через торрент бесплантно в хорошем качестве О фильме:Молодая семья Дон и Дэвид приезжают в деревню, где прошло детство Дэвида. Но их идиллическое существование нарушает внезапный ... 10 10 4
Торрент: Зарегистрирован [2020-08-02 14:01] · скачан: 75 раз
Статус: √ проверено
Размер: 3.48 GB
Как cкачать? Как скачать Разрушители через торрент | qTorrent

% Раздел Тема Автор DL S | L
Фильмы 2011 [ 1.46 GB ] Разрушители / Wreckers [2011 WEB-DLRip] [DVO] killermax2013 Скачать
3 | 0
T Фильмы 2011 [ 691 MB ] Разрушители / Wreckers [2011 DVDRip VO] бон Скачать
1 | 0

28-11-2019 20:33  

Отключить всю рекламу на сайте

    Дорогой пользователь! Огромная просьба, поблагодарите релизера, оцените раздачу и оставьте свои комментарий, если Вы скачали Разрушители через торрент бесплатно! Внесите свою лепту в развитие PiratBit!
    Комментировать посты могут только пользователи прошедшие не сложную регистрацию
    Показать сообщения:    

    Разрушители через торрент
    Скачать бесплатно Разрушители
    Разрушители скачать торрент
    Разрушители смотреть онлайн
    Cкачать фильм Разрушители бесплатно
    Разрушители скачать торрент в хорошем качестве
    Разрушители смотреть онлайн бесплатно в хорошем качестве


    Вы не можете начинать темы
    Вы не можете отвечать на сообщения
    Вы не можете редактировать свои сообщения
    Вы не можете удалять свои сообщения
    Вы не можете голосовать в опросах
    Вы не можете прикреплять файлы к сообщениям
    Вы можете скачивать файлы