Достать ножи: Стеклянная луковица

MVO

Добыча

Дубляж

Уэнсдэй

1 сезон

Тор

Дубляж

13 клиническая

1 сезон

Жестокая ночь

MVO

Одни из нас

1 сезон

Deluxe

pack

Рекомендуем

30

Пиратка

ВАЖНО

ВАЖНО

Ghostwire

Пиратка

jed

RePack

nioh2

RePack

RDR2

RePack

NEED FOR SPEED™ PAYBACK

RePack

скачать торрент

Кинопоиск HD

Острые козырьки 6 сезон

6 сезон

FAR CRY 6

RePack

скачать торрент

Лицензия

скачать торрент

MVO

1

1 сезон

скачать торрент

1 сезон

скачать торрент

Лицензия

  

Флэш Гордон / Flash Gordon (Майк Ходжес) [1980, Фантастика, фэнтези, боевик, приключения, UHD BDRemux 2160p, (Dolby Vision TV)] MVO

Флэш Гордон через торрент piratbit.org

Размер: 62.53 GB | Добавлен: 2 года 5 мес. назад | Торрент скачан:18 раз
Смотреть онлайн | Скачать | Поддержите нас   

12-08-2020 06:37 Флэш Гордон Скачать торрент  

Флэш Гордон | Flash Gordon
Год выпуска: 1980
Страна: США, Великобритания
Студия: Starling Films, Dino De Laurentiis Company
Жанр: Фантастика, фэнтези, боевик, приключения
Продолжительность: 01:58:10
Перевод: Профессиональный (многоголосый)
Субтитры: Отсутствуют

Режиссер: Майк Ходжес

rating

В ролях: Тимоти Далтон, Орнелла Мути, Макс фон Сюдов, Сэм Дж. Джонс, Мелоди Андерсон, Тополь, Брайан Блессид, Питер Уингард, Марианджела Мелато, Джон Осборн, Ричард О’Брайэн, Джон Хэллам, Филип Стоун, Сюзанн Даниэль, Уильям Хуткинс, Бобби Браун, Тед Кэрролл, Эдриэнн Кроненберг, Стэнли Лебор, Джон Мортон, Бернелл Таккер, Робби Колтрейн, Питер Дункан, Тесса Хьюит, Винишия Спайсер, Оливер МакГриви, Джон Холлис, Пол Бенталл, Леон Грин, Грем Краузер, Тони Сканнелл, Дэвид Нил

Описание: Странные энергетические волны сместили Луну с орбиты, вызвав тотальное солнечное затмение на Земле. Жизнь человечества в опасности. Доктор Зарков уговаривает звезду американского футбола Флэша Гордона и прелестную Дэйл совершить вместе с ним отчаянный прыжок в гиперпространство — на планету Монго, откуда исходят разрушительные энергетические волны. Планетой управляет император Минг Беспощадный и его дочь, злобная красавица Аура. У героев есть только одна возможность спасти Землю — уничтожить Минга, объединив враждующих между собой принцев этой далекой планеты…

Качество: UHD BDRemux 2160p | Dolby Vision TV
Формат: MP4

Видео: 3840x2160 at 24.000 fps, MPEG-H HEVC HDR, Dolby Vision Video, 79800 kbps avg
Аудио: 48 kHz, AC3, 5.1, 448 Kbps | Профессиональный многоголосый | RUS |
Данный вид релизов (контейнер MP4) предназначен для встроенного в ТВ (соответственно, с поддержкой DV) плеер.
Т.Е. Можно использовать как USB flash/HDD, так и DLNA / Plex - подобные сервисы/программы. дополнительный-внешний плеер не обязателен.

Внимание!
На моделях LG 2016 возможны сюрпризы "через раз", 2017-2018 должно идти без сюрпризов )
скриншот  скриншот  скриншот  скриншот  скриншот  

Общее
Полное имя : C:\Flash.Gordon.1980.BDREMUX.2160p.HDR.DV_TV.seleZen.mp4
Формат : MPEG-4
Профиль формата : Base Media / Version 2
Идентификатор кодека : mp42 (mp42/dby1/isom)
Размер файла : 62,5 Гбайт
Продолжительность : 1 ч. 51 м.
Общий поток : 80,3 Мбит/сек
Дата кодирования : UTC 2020-08-11 03:47:48
Дата пометки : UTC 2020-08-11 03:47:48

Видео #1
Идентификатор : 1
Формат : HEVC
Формат/Информация : High Efficiency Video Coding
Идентификатор кодека : hev1
Идентификатор кодека/Информация : High Efficiency Video Coding
Продолжительность : 1 ч. 51 м.
Битрейт : 79,8 Мбит/сек
Ширина : 3840 пикселей
Высота : 2160 пикселей
Соотношение сторон : 16:9
Режим частоты кадров : Постоянный
Частота кадров : 24,000 кадра/сек
Бит/(Пиксели*Кадры) : 0.401
Размер потока : 62,1 Гбайт (99%)
Default : Нет
Дата кодирования : UTC 2020-08-11 03:47:48
Дата пометки : UTC 2020-08-11 03:47:48
Codec configuration box : hvcC

Видео #2
Идентификатор : 2
Формат : HEVC
Формат/Информация : High Efficiency Video Coding
HDR_Format/String : Dolby Vision, Version 1.0, dvhe.07.06, EL+RPU
Идентификатор кодека : dvhe
Идентификатор кодека/Информация : High Efficiency Video Coding with Dolby Vision
Продолжительность : 1 ч. 51 м.
Битрейт : 88,4 Кбит/сек
Ширина : 1920 пикселей
Высота : 1080 пикселей
Соотношение сторон : 16:9
Режим частоты кадров : Постоянный
Частота кадров : 24,000 кадра/сек
Бит/(Пиксели*Кадры) : 0.002
Размер потока : 70,5 Мбайт (0%)
Default : Нет
Дата кодирования : UTC 2020-08-11 03:47:48
Дата пометки : UTC 2020-08-11 03:47:48
Codec configuration box : hvcC+dvcC




Скачать Флэш Гордон через торрент https://c.radikal.ru/c00/2008/cb/47c9e05b56d4.jpg Скачать, смотреть онлайн Флэш Гордон бесплантно в хорошем качестве Описание: Странные энергетические волны сместили Луну с орбиты, вызвав тотальное солнечное затмение на Земле. Жизнь человечества в ... 10 10 3
Торрент: Зарегистрирован [2020-08-12 06:37] · скачан: 18 раз
Статус: √ проверено
Размер: 62.53 GB
Как cкачать? Как скачать Флэш Гордон через торрент | UTorrent

% Раздел Тема Автор DL S | L
Ultra HD (UHD: 2K, 4K, 8K) [ 68.44 GB ] Флэш Гордон / Flash Gordon | MVO | 2160p, (Dolby Vision bober100 Скачать
1 | 0
Ultra HD (UHD: 2K, 4K, 8K) [ 65.19 GB ] Флэш Гордон / Flash Gordon | MVO | 2160p bober100 Скачать
1 | 0

28-11-2019 20:33  


Отключить вcю реклaмy на сайте, в т.ч. и в плеере онлайн просмотра!

    Дорогой пользователь! Огромная просьба, поблагодарите релизера, оцените раздачу и оставьте свои комментарий, если Вы скачали Флэш Гордон через торрент бесплатно!!
    Комментировать посты могут только пользователи прошедшие не сложную регистрацию
    Показать сообщения:    


    Флэш Гордон через торрент
    Скачать бесплатно Флэш Гордон
    Флэш Гордон скачать торрент
    Флэш Гордон смотреть онлайн
    Cкачать фильм Флэш Гордон бесплатно
    Флэш Гордон скачать торрент в хорошем качестве
    Флэш Гордон смотреть онлайн бесплатно в хорошем качестве
    Вы не можете начинать темы
    Вы не можете отвечать на сообщения
    Вы не можете редактировать свои сообщения
    Вы не можете удалять свои сообщения
    Вы не можете голосовать в опросах
    Вы не можете прикреплять файлы к сообщениям
    Вы можете скачивать файлы
    Флэш Гордон / Flash Gordon [1980, Фантастика, фэнтези, боевик, приключения, UHD BDRemux 2160p, ] MVO смотреть онлайн, скачать торрент picoco.icu