Ссылка на приватное зеркало нашего сайта всего за 1$. Внимание количество ограничено!!!

2 сезон

iTunes

iTunes

1

iTunes

iTunes

iTunes

WEBRip

iTunes

30
pack

Новость дня

ВАЖНО

!!Акция!!

Alien_RageХит недели

RePack

Horizon Zero Dawn

ИГРА 18+

pack

RePack

jed

!!Акция!!

Alien_Rage

RePack

fifa19

RePack

Assassins Creed: Odyssey

RePack

NEED FOR SPEED™ PAYBACK

4 сезон

9 сезон

Бесстыжие 9 сезон

Все сериалы

все сериалы на PB.wtf

RePack

FAR CRY 5
  

Скуби-ду / Scoob! (Тони Червоне) [2020, Мультфильм, комедия, детектив, приключения, семейный, BD Remux 1080p] DUB [iTunes] piratbit.org

Скуби-ду через торрент piratbit.org

Размер: 21.43 GB | Добавлен: 1 мес. 7 д. назад | Торрент скачан:26 раз
Скачать  

14-08-2020 17:11 Скуби-ду Скачать торрент  

Скуби-ду | Scoob!
Год выпуска: 2020
Страна: США
Выпущено: Warner Bros., Warner Animation Group, Atlas Entertainment
Жанр: Мультфильм, комедия, детектив, приключения, семейный
Продолжительность: 01:33:46
Перевод: Дублированное | iTunes
Субтитры: Русские (Forced, full), английские

Режиссер: Тони Червоне

rating

В ролях: Фрэнк Уэлкер, Уилл Форте, Иэн Армитедж, Марк Уолберг, Джейсон Айзекс, Джина Родригес, Зак Эфрон, Аманда Сайфред, Кирси Клемонс, Кен Жонг

Описание: Скуби-Ду возвращается на большие экраны! Новый полнометражный мультфильм о знаменитом доге и команде друзей-детективов, которые разоблачают «сверхъестественные» явления, служащие ширмой для чьих-то преступных планов.

Качество: BD Remux 1080p
Формат: MKV

Видео: MPEG-4 AVC, 1920x1080, 30.0 Mbit/s, 23.976 fps
Аудио #01: 48 kHz, AC3, 5.1, 384 Kbps | iTunes | RUS |
Аудио #02: 48 kHz, DTS-HD MA, 5.1, 2314 Kbps | Оригинал | ENG |
скриншот  скриншот  скриншот  скриншот  скриншот  

General
Unique ID: 272823649286399285268724253880161991570 (0xCD3FEC6F117C2708E97749D88A10FB92)
Complete name: E:Video111Scoob!.2020.BDREMUX.1080p.seleZen.mkv
Format: Matroska
Format version: Version 4
File size: 21.4 GiB
Duration: 1 h 33 min
Overall bit rate mode: Variable
Overall bit rate: 32.7 Mb/s
Movie name: Scoob! 2020 from селезень
Encoded date: UTC 2020-08-14 11:20:24
Writing application: mkvmerge v40.0.0 ('Old Town Road + Pony') 64-bit
Writing library: libebml v1.3.9 + libmatroska v1.5.2

Video
ID: 1
Format: AVC
Format/Info: Advanced Video Codec
Format profile: High@L4.1
Format settings: CABAC / 4 Ref Frames
Format settings, CABAC: Yes
Format settings, Reference frames: 4 frames
Codec ID: V_MPEG4/ISO/AVC
Duration: 1 h 33 min
Bit rate mode: Variable
Bit rate: 30.0 Mb/s
Maximum bit rate: 32.0 Mb/s
Width: 1 920 pixels
Height: 1 080 pixels
Display aspect ratio: 16:9
Frame rate mode: Constant
Frame rate: 23.976 (24000/1001) FPS
Color space: YUV
Chroma subsampling: 4:2:0
Bit depth: 8 bits
Scan type: Progressive
Bits/(Pixel*Frame): 0.604
Stream size: 19.7 GiB (92%)
Language: English
Default: Yes
Forced: No

Audio #1
ID: 2
Format: AC-3
Format/Info: Audio Coding 3
Commercial name: Dolby Digital
Codec ID: A_AC3
Duration: 1 h 33 min
Bit rate mode: Constant
Bit rate: 384 kb/s
Channel(s): 6 channels
Channel layout: L R C LFE Ls Rs
Sampling rate: 48.0 kHz
Frame rate: 31.250 FPS (1536 SPF)
Compression mode: Lossy
Stream size: 257 MiB (1%)
Title: iTunes
Language: Russian
Service kind: Complete Main
Default: Yes
Forced: Yes

Audio #2
ID: 3
Format: DTS XLL
Format/Info: Digital Theater Systems
Commercial name: DTS-HD Master Audio
Codec ID: A_DTS
Duration: 1 h 33 min
Bit rate mode: Variable
Bit rate: 2 314 kb/s
Channel(s): 6 channels
Channel layout: C L R Ls Rs LFE
Sampling rate: 48.0 kHz
Frame rate: 93.750 FPS (512 SPF)
Bit depth: 16 bits
Compression mode: Lossless
Stream size: 1.52 GiB (7%)
Title: Original
Language: English
Default: No
Forced: No

Text #1
ID: 4
Format: UTF-8
Codec ID: S_TEXT/UTF8
Codec ID/Info: UTF-8 Plain Text
Duration: 1 h 28 min
Bit rate: 1 b/s
Count of elements: 34
Stream size: 1.00 KiB (0%)
Title: Forced
Language: Russian
Default: Yes
Forced: Yes

Text #2
ID: 5
Format: UTF-8
Codec ID: S_TEXT/UTF8
Codec ID/Info: UTF-8 Plain Text
Duration: 1 h 33 min
Bit rate: 101 b/s
Count of elements: 1414
Stream size: 69.5 KiB (0%)
Title: Full
Language: Russian
Default: No
Forced: No

Text #3
ID: 6
Format: UTF-8
Codec ID: S_TEXT/UTF8
Codec ID/Info: UTF-8 Plain Text
Duration: 1 h 26 min
Bit rate: 65 b/s
Count of elements: 1483
Stream size: 41.9 KiB (0%)
Title: Full
Language: English
Default: No
Forced: No

Menu
00:00:00.000: en:Chapter 1
00:07:40.460: en:Chapter 2
00:15:15.748: en:Chapter 3
00:25:04.086: en:Chapter 4
00:34:40.203: en:Chapter 5
00:44:58.779: en:Chapter 6
00:53:22.533: en:Chapter 7
01:01:22.095: en:Chapter 8
01:10:20.383: en:Chapter 9
01:19:34.353: en:Chapter 10
01:27:18.066: en:Chapter 11

piratbit.org



Скачать Скуби-ду через торрент https://c.radikal.ru/c03/2008/f5/2a153f1b7cda.jpg Скачать фильм Скуби-ду через торрент бесплантно в хорошем качестве Описание: Скуби-Ду возвращается на большие экраны! Новый полнометражный мультфильм о знаменитом доге и команде друзей-детективов, которые ... 10 10 3
Торрент: Зарегистрирован [2020-08-14 17:11] · скачан: 26 раз
Статус: √ проверено
Размер: 21.43 GB
Как cкачать? Как скачать Скуби-ду через торрент | qTorrent

% Раздел Тема Автор DL S | L
Иностранные мультфильмы [ 1.42 GB ] Скуби-ду / Scoob! [2020 Мультфильм BDRip] - Twi7ter Скачать
98 | 2
Иностранные мультфильмы [ 2.13 GB ] Скуби-ду / Scoob! [2020 Мультфильм BDRip-AVC] bober100 Скачать
5 | 0
Иностранные мультфильмы [ 1.41 GB ] Скуби-ду / Scoob! [2020 Мультфильм BDRip-AVC] bober100 Скачать
2 | 0
Ultra HD (UHD: 2K, 4K, 8K) [ 43.14 GB ] Скуби-ду / Scoob! [2020 Мультфильм UHD BDRemux 2160p] bober100 Скачать
2 | 0
Зарубежные Мультфильмы (BDRip 1080p, 720p, Blu-ray, BD-Remux) [ 9.84 GB ] Скуби-ду / Scoob! [2020 Мультфильм BDRip 1080p] bober100 Скачать
3 | 0
Зарубежные Мультфильмы (BDRip 1080p, 720p, Blu-ray, BD-Remux) [ 4.8 GB ] Скуби-ду / Scoob! [2020 Мультфильм BDRip 720p] bober100 Скачать
5 | 0
Иностранные мультфильмы [ 1.46 GB ] Скуби-ду / Scoob! [2020 Мультфильм BDRip] bober100 Скачать
3 | 0

28-11-2019 20:33  

Отключить всю рекламу на сайте

    Дорогой пользователь! Огромная просьба, поблагодарите релизера, оцените раздачу и оставьте свои комментарий, если Вы скачали Скуби-ду через торрент бесплатно! Внесите свою лепту в развитие PiratBit!
    Комментировать посты могут только пользователи прошедшие не сложную регистрацию
    Показать сообщения:    

    Скуби-ду через торрент
    Скачать бесплатно Скуби-ду
    Скуби-ду скачать торрент
    Скуби-ду смотреть онлайн
    Cкачать фильм Скуби-ду бесплатно
    Скуби-ду скачать торрент в хорошем качестве
    Скуби-ду смотреть онлайн бесплатно в хорошем качестве


    Вы не можете начинать темы
    Вы не можете отвечать на сообщения
    Вы не можете редактировать свои сообщения
    Вы не можете удалять свои сообщения
    Вы не можете голосовать в опросах
    Вы не можете прикреплять файлы к сообщениям
    Вы можете скачивать файлы