Ссылка на приватное зеркало нашего сайта всего за 1$. Внимание количество ограничено!!!

2 сезон

iTunes

iTunes

1

iTunes

iTunes

iTunes

WEBRip

iTunes

30
pack

Вам бонус

ВАЖНО

!!Акция!!

Alien_RageХит недели

RePack

Horizon Zero Dawn

ИГРА 18+

pack

RePack

jed

!!Акция!!

Alien_Rage

RePack

fifa19

RePack

Assassins Creed: Odyssey

RePack

NEED FOR SPEED™ PAYBACK

4 сезон

9 сезон

Бесстыжие 9 сезон

Все сериалы

все сериалы на PB.wtf

RePack

FAR CRY 5
  

Страна Лавкрафта / Lovecraft Country / Сезон: 1 / Серии: 1-6 из 10 (Дэниэл Сакхайм) [2020, ужасы, фантастика, фэнтези, триллер, драма, детектив, WEB-DL 1080p] [MVO] (HDRezka Studio) piratbit.org

Страна Лавкрафта через торрент piratbit.org

Раздают: 1 [ 150 KB/s ] Качают: 1 [ 0 KB/s ]
Размер: 19.46 GB | Добавлен: 4 д. назад | Торрент скачан:1 раз
Скачать  

18-08-2020 12:03 Страна Лавкрафта Скачать торрент  

Страна Лавкрафта | Lovecraft Country

Год выпуска: 2020
Страна: США
Жанр: ужасы, фантастика, фэнтези, триллер, драма, детектив
Продолжительность: 01:00:00
Перевод: Профессиональный (многоголосый закадровый) *HDRezka Studio*

Режиссёр: Дэниэл Сакхайм, Ян Деманж, Виктория Махони, Шерил Дьюнай, Дэвид Петрарка

В ролях: Джонатан Мэйджерс, Джерни Смоллетт, Кортни Б. Вэнс, Майкл Кеннет Уильямс, Чейз Браун, Онжаню Эллис, Маркус А. Гриффин мл., Эбби Ли, Вунми Моссаку, Джада Харрис, Шон Рэй Картель, Мак Брандт, Алекс Коллинз, Джейми Чанг, Джейми Ньюманн

Описание: По одноименному роману Мэтта Рафа. В центре сюжета — Аттикус Фриман, 22-летний ветеран Корейской войны. Вместе с подругой детства и родным дядей он отправляется на поиски своего отца. Америка 50-х таит в себе много опасностей, но самым удивительным испытанием для героев становится столкновение с загадочными монстрами.

rating

Качество: WEB-DL 1080p
Формат: MKV
Видео: AVC, 1920x1080 (16:9), ~ 8413 Kbps, 23.976 fps
Аудио 1: AC3, 48 kHz, 6 ch, 640 kbps - Rus (HDRezka Studio)
Аудио 2: E-AC3, 48 kHz, 6 ch, 640 kbps - Eng
Субтитры: Русские (Forced), английские (SDH)
Общее
Уникальный идентификатор : 132327990705453149057734566367717474992 (0x638D71A88B3016AE2BE7AC855923C2B0)
Полное имя : Lovecraft.Country.S01E01.WEB-DL.1080p.AMZN.HDREZKA.STUDIO.mkv
Формат : Matroska
Версия формата : Version 4
Размер файла : 4,72 Гбайт
Продолжительность : 1 ч. 9 м.
Общий поток : 9 695 Кбит/сек
Дата кодирования : UTC 2020-08-31 10:22:04
Программа кодирования : mkvmerge v49.0.0 ('Sick Of Losing Soulmates') 64-bit
Библиотека кодирования : libebml v1.4.0 + libmatroska v1.6.1
Attachments : poster.jpg

Видео
Идентификатор : 1
Формат : AVC
Формат/Информация : Advanced Video Codec
Профиль формата : High@L4
Настройки формата : CABAC / 4 Ref Frames
Параметр CABAC формата : Да
Параметр RefFrames формата : 4 кадра
Идентификатор кодека : V_MPEG4/ISO/AVC
Продолжительность : 1 ч. 9 м.
Вид битрейта : Постоянный
Битрейт : 8 413 Кбит/сек
Номинальный битрейт : 10 000 Кбит/сек
Ширина : 1 920 пикселей
Высота : 1 080 пикселей
Соотношение сторон : 16:9
Режим частоты кадров : Постоянный
Частота кадров : 23,976 (24000/1001) кадра/сек
Цветовое пространство : YUV
Субдискретизация насыщенности : 4:2:0
Битовая глубина : 8 бит
Тип развёртки : Прогрессивная
Бит/(Пиксели*Кадры) : 0.169
Размер потока : 4,09 Гбайт (87%)
Default : Да
Forced : Нет
Цветовой диапазон : Limited
Основные цвета : BT.709
Характеристики трансфера : BT.709
Коэффициенты матрицы : BT.709

Аудио #1
Идентификатор : 2
Формат : AC-3
Формат/Информация : Audio Coding 3
Коммерческое название : Dolby Digital
Идентификатор кодека : A_AC3
Продолжительность : 1 ч. 9 м.
Вид битрейта : Постоянный
Битрейт : 640 Кбит/сек
Каналы : 6 каналов
Channel layout : L R C LFE Ls Rs
Частота : 48,0 КГц
Частота кадров : 31,250 кадров/сек (1536 SPF)
Метод сжатия : С потерями
Размер потока : 319 Мбайт (7%)
Язык : Russian
Default : Да
Forced : Нет

Аудио #2
Идентификатор : 3
Формат : E-AC-3
Формат/Информация : Enhanced AC-3
Коммерческое название : Dolby Digital Plus
Идентификатор кодека : A_EAC3
Продолжительность : 1 ч. 9 м.
Вид битрейта : Постоянный
Битрейт : 640 Кбит/сек
Каналы : 6 каналов
Channel layout : L R C LFE Ls Rs
Частота : 48,0 КГц
Частота кадров : 31,250 кадров/сек (1536 SPF)
Метод сжатия : С потерями
Задержка видео : 12 мс.
Размер потока : 319 Мбайт (7%)
Язык : English
Default : Нет
Forced : Нет

Текст #1
Идентификатор : 4
Формат : UTF-8
Идентификатор кодека : S_TEXT/UTF8
Идентификатор кодека/Информация : UTF-8 Plain Text
Продолжительность : 1 ч. 3 м.
Битрейт : 8 бит/сек
Count of elements : 70
Размер потока : 3,81 Кбайт (0%)
Заголовок : Forced
Язык : Russian
Default : Да
Forced : Нет

Текст #2
Идентификатор : 5
Формат : UTF-8
Идентификатор кодека : S_TEXT/UTF8
Идентификатор кодека/Информация : UTF-8 Plain Text
Продолжительность : 1 ч. 9 м.
Битрейт : 73 бит/сек
Count of elements : 1348
Размер потока : 37,2 Кбайт (0%)
Заголовок : SDH
Язык : English
Default : Нет
Forced : Нет
скриншот  скриншот  скриншот  
Раздача ведётся путём добавления новых серий; при каждом добавлении создаётся новый торрент.
Чтобы начать докачку новой серии, пользователям необходимо сделать следующее:
1. остановить скачивание,
2. удалить старый торрент у себя из клиента (старые серии удалять не надо),
3. скачать новый торрент и запустить его у себя в клиенте вместо старого, при этом указать клиенту путь в старую папку, куда и должно происходить скачивание новых серий.

Ваш клиент при этом должен произвести хеширование (проверку) старой папки (если не производит сам - помогите ему сделать это), и будет докачивать только те серии которых у вас ещё нет. Старые серии при этом не удаляются, а продолжают раздаваться!

Eсли вы уже удалили старые серии, то предотвратить повторную закачку старых серий можно, отжав галочку в соответствующих местах при запуске нового торрента. По возможности, желательно не удалять старые серии как можно дольше, чтобы релизёр не столько продолжал раздавать старые серии, а смог сконцентрироваться на новых.

Совет для тех, кто не хочет ждать перехеширования:
Создайте ещё одну папку рядом с папкой сериала (рядом, а не в ней!!!). Каждую новую серию после удачной загрузки копируйте в новую папку так чтобы ваша основная папка всегда была пуста. Когда ваш новый торрент предложит вам закачать все файлы, выберете только последнюю. Для сидирования же укажите адрес новой папки.

Как закачать отдельный файл из торрента или докачать ранее пропущенные файлы торрента!
piratbit.org



Скачать Страна Лавкрафта через торрент https://i112.fastpic.ru/big/2020/0818/c0/3064a0b9994e5aba9099402540e3dac0.jpeg Скачать фильм Страна Лавкрафта через торрент бесплантно в хорошем качестве Описание: По одноименному роману Мэтта Рафа. В центре сюжета — Аттикус Фриман, 22-летний ветеран Корейской войны. Вместе с подругой детства ... 10 10 4
Торрент: Зарегистрирован [2020-09-24 16:57] · скачан: 1 раз
Статус: √ проверено
Размер: 19.46 GB
Как cкачать? Как скачать Страна Лавкрафта через торрент | qTorrent

% Раздел Тема Автор DL S | L
Зарубежные сериалы [ 18.79 GB ] Страна Лавкрафта / Lovecraft Country / Сезон: 1 / Серии: 1-6 из 10 [2020 WEB-DL 1080p] MVO [AlexFilm] bober100 Скачать
2 | 2
Зарубежные сериалы [ 18.79 GB ] Страна Лавкрафта / Lovecraft Country / Сезон: 1 / Серии: 1-6 из 10 [2020 WEB-DL 1080p] MVO [NewStudio] bober100 Скачать
4 | 4
Зарубежные сериалы [ 13.31 GB ] Страна Лавкрафта / Lovecraft Country / Сезон: 1 / Серии: 1-6 из 10 [2020 WEB-DL 720p] 4x[MVO] killermax2013 Скачать
2 | 0


Последний раз редактировалось: killermax2013 (2020-09-24 16:57), всего редактировалось 7 раз(а)

28-11-2019 20:33  

Отключить всю рекламу на сайте

18-08-2020 16:58 Страна Лавкрафта Скачать торрент  

Первая серия зашла,ждём вторую..piratbit.org



    Дорогой пользователь! Огромная просьба, поблагодарите релизера, оцените раздачу и оставьте свои комментарий, если Вы скачали Страна Лавкрафта через торрент бесплатно! Внесите свою лепту в развитие PiratBit!
    Комментировать посты могут только пользователи прошедшие не сложную регистрацию
    Показать сообщения:    

    Страна Лавкрафта через торрент
    Скачать бесплатно Страна Лавкрафта
    Страна Лавкрафта скачать торрент
    Страна Лавкрафта смотреть онлайн
    Cкачать фильм Страна Лавкрафта бесплатно
    Страна Лавкрафта скачать торрент в хорошем качестве
    Страна Лавкрафта смотреть онлайн бесплатно в хорошем качестве


    Вы не можете начинать темы
    Вы не можете отвечать на сообщения
    Вы не можете редактировать свои сообщения
    Вы не можете удалять свои сообщения
    Вы не можете голосовать в опросах
    Вы не можете прикреплять файлы к сообщениям
    Вы можете скачивать файлы