2 сезон

iTunes

WEBRip

1

2 сезон

iTunes

1 сезон

1 сезон

RePack

30

Новинка

ВАЖНО

ИГРА 18+

pack

RePack

MK11
pack

Легкие деньги

RePack

jed

RePack

fifa19

RePack

RDR2

RePack

NEED FOR SPEED™ PAYBACK

4 сезон

9 сезон

Бесстыжие 9 сезон

Все сериалы

все сериалы на PB.wtf

RePack

FAR CRY 5

Anonymous, добрый день, мы не успеваем собрать деньги на оплату серверов за февраль, помогите нам пожалуйста в это трудное время. В качестве благодарности мы отключим Вам всю рекламу на сайте (укажите свой ник в строку Ваше имя)!

×
  
Magnet ссылка

Наши котики / Наші котики (Владислав Климчук) [2020, военный, драма, комедия, WEB-DL 1080p] [UKR] piratbit.org

Наши котики через торрент piratbit.org

Размер: 9.17 GB | Добавлен: 6 мес. назад | Торрент скачан:59 раз
Скачать  

24-08-2020 13:53 Наши котики Скачать торрент  

Наши котики / Наші котики
Год выпуска: 2020
Страна: Украина
Жанр: военный, драма, комедия
Продолжительность: 01:50:55
Перевод: Украинский [оригинал]
Субтитры: украинские

Режиссер: Владимир Тихий

В ролях: Дмитрий Тубoльцев, Станислав Бжезинский, Петр Микитюк, Вера Климковецкая, Дмитрий Хомяк, Ярослав Федорчук, Дмитрий Ярошенко, Михаил Кукуюк, Сергей Солопай, Игорь Портянко 2014 год. На украинскую землю пришел враг, поэтому пора ее защищать. Без опыта, без нормального оружия и продовольственного обеспечения, тысячи добровольцев ушли на фронт. И вот собрались вместе продавец цветов, футбольный тренер, инженер и актер. Однажды, во время боевого дежурства, которое должно было стать едва ли не самым скучным, с собратьями случилась неприятность.

rating


Качество: WEB-DL 1080p
Формат: MKV
Видео: AVC, 1920x1080, 24.000 fps, 12.0 Mb/s
Аудио: 48 kHz, AAC, 2 ch, ~128 kbps
General
Unique ID : 94783255395186229150473568903178717403 (0x474E974A69D835D1AC3F8E19765B88DB)
Complete name : D:\Documents\Torrents\FILMS\Наші котики.2020.1080p.WEB-DL.mkv
Format : Matroska
Format version : Version 4
File size : 9.17 GiB
Duration : 1 h 50 min
Overall bit rate : 11.9 Mb/s
Movie name : Наші котики 2020 by sergiyko
Encoded date : UTC 2020-08-23 22:31:00
Writing application : mkvmerge v47.0.0 ('Black Flag') 64-bit
Writing library : libebml v1.3.10 + libmatroska v1.5.2
Cover : Yes
Attachments : cover.jpeg

Video
ID : 1
Format : AVC
Format/Info : Advanced Video Codec
Format profile : High@L4.2
Format settings : CABAC / 2 Ref Frames
Format settings, CABAC : Yes
Format settings, Reference : 2 frames
Codec ID : V_MPEG4/ISO/AVC
Duration : 1 h 50 min
Bit rate mode : Constant
Bit rate : 12.0 Mb/s
Width : 1 920 pixels
Height : 1 080 pixels
Display aspect ratio : 16:9
Frame rate mode : Constant
Frame rate : 24.000 FPS
Color space : YUV
Chroma subsampling : 4:2:0
Bit depth : 8 bits
Scan type : Progressive
Bits/(Pixel*Frame) : 0.241
Stream size : 9.07 GiB (99%)
Title : Наші котики 2020
Language : Ukrainian
Default : Yes
Forced : No

Audio
ID : 2
Format : AAC LC
Format/Info : Advanced Audio Codec Low Complexity
Codec ID : A_AAC-2
Duration : 1 h 49 min
Bit rate : 128 kb/s
Channel(s) : 2 channels
Channel layout : L R
Sampling rate : 48.0 kHz
Frame rate : 46.875 FPS (1024 SPF)
Compression mode : Lossy
Delay relative to video : -125 ms
Stream size : 101 MiB (1%)
Title : Оригінал
Language : Ukrainian
Default : Yes
Forced : No

скриншот   скриншот   скриншот  
piratbit.org



Скачать Наши котики через торрент https://i112.fastpic.ru/big/2020/0824/43/a4d9a4c7ee4d7d5f3b55d53b2c0bd443.jpg Скачать фильм Наши котики через торрент бесплантно в хорошем качестве В ролях: Дмитрий Тубoльцев, Станислав Бжезинский, Петр Микитюк, Вера Климковецкая, Дмитрий Хомяк, Ярослав Федорчук, Дмитрий Ярошенко, ... 7.3 10 11
Info! Золотая раздача, скачанное не засчитывается.
Торрент: Зарегистрирован [2020-08-24 13:53] · скачан: 59 раз
Статус: √ проверено
Размер: 9.17 GB
Как cкачать? Как скачать Наши котики через торрент | UTorrent

% Раздел Тема Автор DL S | L
Фильмы с украинским озвучиванием [ 1.16 GB ] Наши котики / Наші котики [2020 военный WEB-DLRip-AVC] [UKR] killermax2013 Скачать
3 | 0


Последний раз редактировалось: killermax2013 (2020-08-24 16:33), всего редактировалось 2 раз(а)

28-11-2019 20:33  

Отключить всю рекламу на сайте

24-08-2020 13:54 Наши котики Скачать торрент  

piratbit.org



24-08-2020 15:54 Наши котики Скачать торрент  

на русском будет?piratbit.org
Kkillermax2013 писал(а):

это вряд ли



    Дорогой пользователь! Огромная просьба, поблагодарите релизера, оцените раздачу и оставьте свои комментарий, если Вы скачали Наши котики через торрент бесплатно! Внесите свою лепту в развитие PiratBit!
    Комментировать посты могут только пользователи прошедшие не сложную регистрацию
    Показать сообщения:    

    Наши котики через торрент
    Скачать бесплатно Наши котики
    Наши котики скачать торрент
    Наши котики смотреть онлайн
    Cкачать фильм Наши котики бесплатно
    Наши котики скачать торрент в хорошем качестве
    Наши котики смотреть онлайн бесплатно в хорошем качестве


    Вы не можете начинать темы
    Вы не можете отвечать на сообщения
    Вы не можете редактировать свои сообщения
    Вы не можете удалять свои сообщения
    Вы не можете голосовать в опросах
    Вы не можете прикреплять файлы к сообщениям
    Вы можете скачивать файлы