Ссылка на приватное зеркало нашего сайта всего за 1$. Внимание количество ограничено!!!

2 сезон

iTunes

iTunes

1

iTunes

iTunes

iTunes

WEBRip

iTunes

30
pack

Вам бонус

ВАЖНО

!!Акция!!

Alien_RageХит недели

RePack

Horizon Zero Dawn

ИГРА 18+

pack

RePack

jed

!!Акция!!

Alien_Rage

RePack

fifa19

RePack

Assassins Creed: Odyssey

RePack

NEED FOR SPEED™ PAYBACK

4 сезон

9 сезон

Бесстыжие 9 сезон

Все сериалы

все сериалы на PB.wtf

RePack

FAR CRY 5
  

Риф. Новые приключения / Go Fish (Шон Патрик О Рейли) [2019, мультфильм, приключения, семейный, WEB-DLRip-AVC] [DUB] [iTunes] от wolf1245 & MediaBit piratbit.org

Риф. Новые приключения через торрент piratbit.org

Раздают: 1 [ 0 KB/s ]
Размер: 1.65 GB | Добавлен: 1 мес. назад | Торрент скачан:23 раза
Скачать  

26-08-2020 15:05 Риф. Новые приключения Скачать торрент  


Риф. Новые приключения / Go Fish
Информация о фильме:
Название: Риф. Новые приключения
Оригинальное название: Go Fish
Год выхода: 2019
Жанр: мультфильм, приключения, семейный, полнометражный
Режиссер: Шон Патрик О Рейли

В ролях: Джастин Эзарик, Марк Хэмилл, Азия Матту, Шон Патрик О Рейли, Рон Перлман, Элисон Вандзура

Описание: Где-то глубоко в море, у густонаселенного кораллового рифа происходит беда: таинственные темные пятна загрязняют воду. Храбрая рыбка-попугай Алекс, мечтающий стать супергероем, пытается защитить свой дом. Вместе с командой друзей он отправляется в далекое подводное путешествие, где его ждет много удивительных встреч и открытий

rating

Страна: США
Студия: Arcana Studio, Grindstone Entertainment Group
Продолжительность: 01:14:52
Перевод: Дублированный - iTunes



Информация о файле:
Кодек: AVC
Формат: MKV
Качество: WEB-DLRip-AVC
Видео: MPEG-4 AVC, 1024x574 (16:9), 2 777 Кбит/сек, 23,976 кадра/сек, 0.197
Аудио RU: AC3, 6 ch, 48 kHz, 384 kbps
Субтитры: English
Навигация по главам: Есть

|


Общее
Уникальный идентификатор : 1036218679724968616304212198514260751 (0xC791867DB9CA0500783367BE687B0F)
Полное имя : D:uTorrentРипы_от_wolf1245_MediaBitGo Fish (2019) WEB-DLRip-AVC_wolf1245_MediaBit.mkv
Формат : Matroska
Версия формата : Version 4
Размер файла : 1,65 Гбайт
Продолжительность : 1 ч. 14 м.
Общий поток : 3 165 Кбит/сек
Название фильма : Go Fish (2019) WEB-DLRip-AVC_wolf1245_MediaBit
Дата кодирования : UTC 2020-08-26 14:41:56
Программа кодирования : mkvmerge v49.0.0 ('Sick Of Losing Soulmates') 64-bit
Библиотека кодирования : libebml v1.4.0 + libmatroska v1.6.1
Обложка : Yes
Attachments : CoVer.png

Видео
Идентификатор : 1
Формат : AVC
Формат/Информация : Advanced Video Codec
Профиль формата : High@L4.1
Настройки формата : CABAC / 10 Ref Frames
Параметр CABAC формата : Да
Параметр RefFrames формата : 10 кадров
Идентификатор кодека : V_MPEG4/ISO/AVC
Продолжительность : 1 ч. 14 м.
Битрейт : 2 777 Кбит/сек
Ширина : 1 024 пикселя
Высота : 574 пикселя
Соотношение сторон : 16:9
Режим частоты кадров : Постоянный
Частота кадров : 23,976 (24000/1001) кадра/сек
Цветовое пространство : YUV
Субдискретизация насыщенности : 4:2:0
Битовая глубина : 8 бит
Тип развёртки : Прогрессивная
Бит/(Пиксели*Кадры) : 0.197
Размер потока : 1,45 Гбайт (88%)
Заголовок : wolf1245_MediaBit
Библиотека кодирования : x264 core 157 r2958 57baac4
Настройки программы : cabac=1 / ref=10 / deblock=1:-3:-3 / analyse=0x3:0x133 / me=umh / subme=11 / psy=1 / psy_rd=1.00:0.15 / mixed_ref=1 / me_range=48 / chroma_me=1 / trellis=2 / 8x8dct=1 / cqm=0 / deadzone=21,11 / fast_pskip=0 / chroma_qp_offset=-3 / threads=10 / lookahead_threads=2 / sliced_threads=0 / nr=0 / decimate=0 / interlaced=0 / bluray_compat=0 / constrained_intra=0 / bframes=10 / b_pyramid=2 / b_adapt=2 / b_bias=10 / direct=3 / weightb=1 / open_gop=0 / weightp=2 / keyint=240 / keyint_min=24 / scenecut=40 / intra_refresh=0 / rc_lookahead=60 / rc=2pass / mbtree=0 / bitrate=2777 / ratetol=1.0 / qcomp=0.60 / qpmin=0 / qpmax=69 / qpstep=4 / cplxblur=20.0 / qblur=0.5 / vbv_maxrate=50000 / vbv_bufsize=62500 / nal_hrd=none / filler=0 / ip_ratio=1.40 / pb_ratio=1.30 / aq=1:1.00
Язык : English
Default : Да
Forced : Нет
Цветовой диапазон : Limited
Основные цвета : BT.709
Характеристики трансфера : BT.709
Коэффициенты матрицы : BT.709

Аудио
Идентификатор : 2
Формат : AC-3
Формат/Информация : Audio Coding 3
Коммерческое название : Dolby Digital
Идентификатор кодека : A_AC3
Продолжительность : 1 ч. 14 м.
Вид битрейта : Постоянный
Битрейт : 384 Кбит/сек
Каналы : 6 каналов
Channel layout : L R C LFE Ls Rs
Частота : 48,0 КГц
Частота кадров : 31,250 кадров/сек (1536 SPF)
Метод сжатия : С потерями
Размер потока : 206 Мбайт (12%)
Заголовок : DUB | iTunes
Язык : Russian
Service kind : Complete Main
Default : Да
Forced : Нет

Текст
Идентификатор : 3
Формат : UTF-8
Идентификатор кодека : S_TEXT/UTF8
Идентификатор кодека/Информация : UTF-8 Plain Text
Продолжительность : 1 ч. 13 м.
Битрейт : 94 бит/сек
Count of elements : 1413
Размер потока : 50,9 Кбайт (0%)
Язык : English
Default : Да
Forced : Нет

Меню
00:00:00.000 : :1
00:09:54.000 : :2
00:19:15.000 : :3
00:27:05.000 : :4
00:36:36.000 : :5
00:46:48.000 : :6
00:54:23.000 : :7
01:03:41.000 : :8
01:12:10.000 : :9
Релиз от: &
piratbit.org



Скачать Риф. Новые приключения через торрент https://d.radikal.ru/d43/2008/98/8ff4ca5eeb6c.png Скачать фильм Риф. Новые приключения через торрент бесплантно в хорошем качестве Описание: Где-то глубоко в море, у густонаселенного кораллового рифа происходит беда: таинственные темные пятна загрязняют воду. Храбрая ... 10 10 1
Торрент: Зарегистрирован [2020-08-26 15:05] · скачан: 23 раз
Статус: √ проверено
Размер: 1.65 GB
Как cкачать? Как скачать Риф. Новые приключения через торрент | qTorrent

28-11-2019 20:33  

Отключить всю рекламу на сайте

    Дорогой пользователь! Огромная просьба, поблагодарите релизера, оцените раздачу и оставьте свои комментарий, если Вы скачали Риф. Новые приключения через торрент бесплатно! Внесите свою лепту в развитие PiratBit!
    Комментировать посты могут только пользователи прошедшие не сложную регистрацию
    Показать сообщения:    

    Риф. Новые приключения через торрент
    Скачать бесплатно Риф. Новые приключения
    Риф. Новые приключения скачать торрент
    Риф. Новые приключения смотреть онлайн
    Cкачать фильм Риф. Новые приключения бесплатно
    Риф. Новые приключения скачать торрент в хорошем качестве
    Риф. Новые приключения смотреть онлайн бесплатно в хорошем качестве


    Вы не можете начинать темы
    Вы не можете отвечать на сообщения
    Вы не можете редактировать свои сообщения
    Вы не можете удалять свои сообщения
    Вы не можете голосовать в опросах
    Вы не можете прикреплять файлы к сообщениям
    Вы можете скачивать файлы