Ссылка на приватное зеркало нашего сайта всего за 1$. Внимание количество ограничено!!!

2 сезон

iTunes

1 сезон

1

2 сезон

2 сезон

iTunes

1 сезон

RePack

30

Новинка

ВАЖНО

ИГРА 18+

pack

RePack

MK11
pack

Забери бонус

RePack

jed

!!Акция!!

Alien_Rage

RePack

fifa19

RePack

Assassins Creed: Odyssey

RePack

NEED FOR SPEED™ PAYBACK

4 сезон

9 сезон

Бесстыжие 9 сезон

Все сериалы

все сериалы на PB.wtf

RePack

FAR CRY 5
  

Битва за Англию / Битва за Британию / Battle of Britain (Гай Хэмилтон) [1969, военный, история, драма, боевик, BDRip 1080p] [3xDVO+AVO] piratbit.org

Битва за Англию через торрент piratbit.org

Размер: 14.62 GB | Добавлен: 2 мес. 29 д. назад | Торрент скачан:10 раз
Скачать  

27-08-2020 15:53 Битва за Англию Скачать торрент  


Битва за Англию / Битва за Британию / Battle of Britain



Год выхода: 1969
Жанр: Военный, история, драма, боевик
Страна: Великобритания
Продолжительность: 02:12:11
Перевод:
• Профессиональный (двухголосый, закадровый)
• Профессиональный (двухголосый, закадровый) | НТВ+ | Александр Белый, Ольга Плетнёва
• Профессиональный (двухголосый, закадровый) | Лазер Видео лицензионная VHS | Александр Новиков, Елена Астафьева
• Авторский (одноголосый, закадровый) | Юрий Живов
Субтитры: Русские (3xFull), Английские (Full)

Режиссер: Гай Хэмилтон

В ролях: Гарри Эндрюс, Майкл Кейн, Тревор Ховард, Курд Юргенс, Иэн МакШейн, Кеннет Мор, Лоуренс Оливье, Найджел Патрик, Кристофер Пламмер, Майкл Редгрейв

О фильме:
Разгар Второй мировой. Германия торопится закончить победный марш по Европе. Осталась непокоренной лишь Англия и для десантной операции Рейху необходимо полное господство над Королевским Воздушным Флотом. Завязывается величайшая воздушная битва в истории.

Дни, недели и месяцы, по всему побережью «Спитфайры» и «Мессершмитты» крутят стремительную огненную карусель вокруг немецких бомбардировщиков, которые размеренными волнами день за днем накатываются на замершие города. Королевство превратилось в огромное бомбоубежище, над которым непрерывно идут жестокие схватки. Страна из последних сил строит и бросает в бой новые и новые самолеты, чтобы остановить эти смертельные стаи...



Качество: BDRip 1080p
Формат: MKV
Видео: 1916x816 (2.35:1), 23,976 fps, MPEG-4 AVC ~ 13.4 Mbps avg, 0.356 bit/pixel
Аудио: AC3, 48 kHz, 6 ch, ~448.00 kbps avg | русский | DVO |
Аудио: AC3, 48 kHz, 2 ch, ~192.00 kbps avg | русский | DVO | НТВ+
Аудио: AC3, 48 kHz, 2 ch, ~192.00 kbps avg | русский | DVO | Лазер Видео
Аудио: AC3, 48 kHz, 2 ch, ~128.00 kbps avg | русский | AVO | Живов
Аудио: DTS, 48 kHz, 6 ch, ~1510.00 kbps avg | английский | Оригинал
Общее

Уникальный идентификатор : 167190133667747476142194295863925679395 (0x7DC7A60306CDEECFF19AC2445C962523)

Полное имя : Battle.of.Britain.1969.1080p.BluRay.x264.mkv

Формат : Matroska

Версия формата : Version 4

Размер файла : 14,6 Гбайт

Продолжительность : 2 ч. 12 м.

Общий поток : 15,8 Мбит/сек

Название фильма : Битва за Англию / Битва за Британию / Battle of Britain (1969)

Дата кодирования : UTC 2020-08-27 13:35:40

Программа кодирования : mkvmerge v47.0.0 ('Black Flag') 64-bit

Библиотека кодирования : libebml v1.3.10 + libmatroska v1.5.2

Обложка : Yes

Attachments : cover.jpg / cover.jpg

Видео

Идентификатор : 1

Формат : AVC

Формат/Информация : Advanced Video Codec

Профиль формата : High@L4.1

Настройки формата : CABAC / 5 Ref Frames

Параметр CABAC формата : Да

Параметр RefFrames формата : 5 кадров

Идентификатор кодека : V_MPEG4/ISO/AVC

Продолжительность : 2 ч. 12 м.

Битрейт : 13,4 Мбит/сек

Ширина : 1 916 пикселей

Высота : 816 пикселей

Соотношение сторон : 2,35:1

Режим частоты кадров : Постоянный

Частота кадров : 23,976 кадра/сек

Цветовое пространство : YUV

Субдискретизация насыщенности : 4:2:0

Битовая глубина : 8 бит

Тип развёртки : Прогрессивная

Бит/(Пиксели*Кадры) : 0.356

Размер потока : 12,3 Гбайт (84%)

Заголовок : #stillet

Библиотека кодирования : x264 core 152 r2851bm ba24899

Настройки программы : cabac=1 / ref=5 / deblock=1:-3:-3 / analyse=0x3:0x113 / me=umh / subme=10 / psy=1 / psy_rd=1.00:0.15 / mixed_ref=1 / me_range=32 / chroma_me=1 / trellis=2 / 8x8dct=1 / cqm=0 / deadzone=21,11 / fast_pskip=0 / chroma_qp_offset=-3 / threads=8 / lookahead_threads=3 / sliced_threads=0 / nr=0 / decimate=0 / interlaced=0 / bluray_compat=0 / constrained_intra=0 / bframes=8 / b_pyramid=2 / b_adapt=2 / b_bias=0 / direct=3 / weightb=1 / open_gop=0 / weightp=2 / keyint=240 / keyint_min=23 / scenecut=40 / intra_refresh=0 / rc_lookahead=40 / rc=2pass / mbtree=0 / bitrate=13359 / ratetol=1.0 / qcomp=0.60 / qpmin=0 / qpmax=69 / qpstep=4 / cplxblur=20.0 / qblur=0.5 / vbv_maxrate=50000 / vbv_bufsize=62500 / nal_hrd=none / filler=0 / ip_ratio=1.40 / pb_ratio=1.30 / aq=1:1.00

Язык : English

Default : Да

Forced : Нет

Аудио #1

Идентификатор : 2

Формат : AC-3

Формат/Информация : Audio Coding 3

Коммерческое название : Dolby Digital

Идентификатор кодека : A_AC3

Продолжительность : 2 ч. 12 м.

Вид битрейта : Постоянный

Битрейт : 448 Кбит/сек

Каналы : 6 каналов

Channel layout : L R C LFE Ls Rs

Частота : 48,0 КГц

Частота кадров : 31,250 кадров/сек (1536 SPF)

Метод сжатия : С потерями

Размер потока : 424 Мбайт (3%)

Заголовок : DVO

Язык : Russian

Service kind : Complete Main

Default : Да

Forced : Да

Аудио #2

Идентификатор : 3

Формат : AC-3

Формат/Информация : Audio Coding 3

Коммерческое название : Dolby Digital

Идентификатор кодека : A_AC3

Продолжительность : 2 ч. 12 м.

Вид битрейта : Постоянный

Битрейт : 192 Кбит/сек

Каналы : 2 канала

Channel layout : L R

Частота : 48,0 КГц

Частота кадров : 31,250 кадров/сек (1536 SPF)

Метод сжатия : С потерями

Размер потока : 182 Мбайт (1%)

Заголовок : DVO | НТВ+ (Александр Белый, Ольга Плетнёва)

Язык : Russian

Service kind : Complete Main

Default : Нет

Forced : Нет

Аудио #3

Идентификатор : 4

Формат : AC-3

Формат/Информация : Audio Coding 3

Коммерческое название : Dolby Digital

Идентификатор кодека : A_AC3

Продолжительность : 2 ч. 12 м.

Вид битрейта : Постоянный

Битрейт : 192 Кбит/сек

Каналы : 2 канала

Channel layout : L R

Частота : 48,0 КГц

Частота кадров : 31,250 кадров/сек (1536 SPF)

Метод сжатия : С потерями

Размер потока : 182 Мбайт (1%)

Заголовок : DVO | "Лазер Видео" лицензионная VHS (Александр Новиков, Елена Астафьева)

Язык : Russian

Service kind : Complete Main

Default : Нет

Forced : Нет

Аудио #4

Идентификатор : 5

Формат : AC-3

Формат/Информация : Audio Coding 3

Коммерческое название : Dolby Digital

Идентификатор кодека : A_AC3

Продолжительность : 2 ч. 11 м.

Вид битрейта : Постоянный

Битрейт : 128 Кбит/сек

Каналы : 2 канала

Channel layout : L R

Частота : 48,0 КГц

Частота кадров : 31,250 кадров/сек (1536 SPF)

Метод сжатия : С потерями

Размер потока : 121 Мбайт (1%)

Заголовок : AVO | Живов

Язык : Russian

Service kind : Complete Main

Default : Нет

Forced : Нет

Аудио #5

Идентификатор : 6

Формат : DTS

Формат/Информация : Digital Theater Systems

Идентификатор кодека : A_DTS

Продолжительность : 2 ч. 12 м.

Вид битрейта : Постоянный

Битрейт : 1 510 Кбит/сек

Каналы : 6 каналов

Channel layout : C L R Ls Rs LFE

Частота : 48,0 КГц

Частота кадров : 93,750 кадра/сек (512 SPF)

Битовая глубина : 24 бит

Метод сжатия : С потерями

Размер потока : 1,39 Гбайт (10%)

Язык : English

Default : Нет

Forced : Нет

Текст #1

Идентификатор : 7

Формат : UTF-8

Идентификатор кодека : S_TEXT/UTF8

Идентификатор кодека/Информация : UTF-8 Plain Text

Продолжительность : 2 ч. 10 м.

Битрейт : 62 бит/сек

Count of elements : 886

Размер потока : 59,5 Кбайт (0%)

Заголовок : V#1 | Full

Язык : Russian

Default : Нет

Forced : Нет

Текст #2

Идентификатор : 8

Формат : UTF-8

Идентификатор кодека : S_TEXT/UTF8

Идентификатор кодека/Информация : UTF-8 Plain Text

Продолжительность : 2 ч. 10 м.

Битрейт : 68 бит/сек

Count of elements : 939

Размер потока : 65,7 Кбайт (0%)

Заголовок : V#2 | Full

Язык : Russian

Default : Нет

Forced : Нет

Текст #3

Идентификатор : 9

Формат : UTF-8

Идентификатор кодека : S_TEXT/UTF8

Идентификатор кодека/Информация : UTF-8 Plain Text

Продолжительность : 2 ч. 9 м.

Битрейт : 69 бит/сек

Count of elements : 1246

Размер потока : 65,8 Кбайт (0%)

Заголовок : V#3 | Full

Язык : Russian

Default : Нет

Forced : Нет

Текст #4

Идентификатор : 10

Формат : UTF-8

Идентификатор кодека : S_TEXT/UTF8

Идентификатор кодека/Информация : UTF-8 Plain Text

Продолжительность : 2 ч. 9 м.

Битрейт : 41 бит/сек

Count of elements : 1246

Размер потока : 38,9 Кбайт (0%)

Заголовок : Full

Язык : English

Default : Нет

Forced : Нет

Меню

00:00:00.000 : en:Start

00:12:17.319 : en:Preparations

00:13:40.736 : en:"What's Stopping You?"

00:16:49.008 : en:Flight Training

00:20:39.363 : en:Bad Odds & Prayers

00:25:16.264 : en:Jackdaw Inn

00:31:11.953 : en:The German Strategy

00:36:49.040 : en:Entering Ground Raids

00:38:14.041 : en:First the Radar...

00:42:17.618 : en:...Then the Airfields

00:46:28.702 : en:Squadron Scramble

00:50:31.445 : en:Assessing the Toil

00:54:49.327 : en:An Easy Victory

01:00:05.184 : en:They're Coming Back

01:02:20.570 : en:Momentary Security

01:07:43.017 : en:"Just Blew Up!"

01:13:54.596 : en:Losing the Battle

01:15:44.873 : en:Shy Interlude

01:19:58.126 : en:Bombs Over Berlin

01:22:25.023 : en:Hitler's Propaganda

01:27:01.382 : en:London Is Burning

01:30:31.634 : en:Safe Harbor

01:37:09.865 : en:Language Barriers

01:40:03.247 : en:A Big German Blunder?

01:46:46.149 : en:Objective: Destroy RAF

01:54:40.206 : en:Bad News & Good Flyers

02:03:29.443 : en:The Right Numbers

02:09:08.240 : en:"End of the Beginning"
скриншот  скриншот  скриншот  
piratbit.org



Скачать Битва за Англию через торрент https://i112.fastpic.ru/big/2020/0827/4e/ce7ff2aa269f162d341f442c1a7ab24e.jpg Скачать фильм Битва за Англию через торрент бесплантно в хорошем качестве О фильме:Разгар Второй мировой. Германия торопится закончить победный марш по Европе. Осталась непокоренной лишь Англия и для десантной ... 10 10 1
Торрент: Зарегистрирован [2020-08-27 15:53] · скачан: 10 раз
Статус: √ проверено
Размер: 14.62 GB
Как cкачать? Как скачать Битва за Англию через торрент | qTorrent

28-11-2019 20:33  

Отключить всю рекламу на сайте

27-08-2020 16:50 Битва за Англию Скачать торрент  

Топик был перенесен из форума Фильмы [HD 720p, 1080p] (Хороший звук DUB, MVO) в форум Классика зарубежного кино


bober100piratbit.org



    Дорогой пользователь! Огромная просьба, поблагодарите релизера, оцените раздачу и оставьте свои комментарий, если Вы скачали Битва за Англию через торрент бесплатно! Внесите свою лепту в развитие PiratBit!
    Комментировать посты могут только пользователи прошедшие не сложную регистрацию
    Показать сообщения:    

    Битва за Англию через торрент
    Скачать бесплатно Битва за Англию
    Битва за Англию скачать торрент
    Битва за Англию смотреть онлайн
    Cкачать фильм Битва за Англию бесплатно
    Битва за Англию скачать торрент в хорошем качестве
    Битва за Англию смотреть онлайн бесплатно в хорошем качестве


    Вы не можете начинать темы
    Вы не можете отвечать на сообщения
    Вы не можете редактировать свои сообщения
    Вы не можете удалять свои сообщения
    Вы не можете голосовать в опросах
    Вы не можете прикреплять файлы к сообщениям
    Вы можете скачивать файлы