2 сезон

iTunes

WEBRip

1

2 сезон

iTunes

1 сезон

1 сезон

RePack

30

Ultimate

ВАЖНО

ИГРА 18+

pack

RePack

MK11
pack

Легкие деньги

RePack

jed

RePack

fifa19

RePack

RDR2

RePack

NEED FOR SPEED™ PAYBACK

4 сезон

9 сезон

Бесстыжие 9 сезон

Все сериалы

все сериалы на PB.wtf

RePack

FAR CRY 5

Anonymous, доброй ночи, мы не успеваем собрать деньги на оплату серверов за февраль, помогите нам пожалуйста в это трудное время. В качестве благодарности мы отключим Вам всю рекламу на сайте (укажите свой ник в строку Ваше имя)!

×
  
Magnet ссылка

Думай как собака / Думай як пес / Think Like a Dog (Джил Джангер) [2020, Фантастика, драма, комедия, семейный, BDRip-AVC] [Ukr DUB] piratbit.org

Думай как собака через торрент piratbit.org

Размер: 1.21 GB | Добавлен: 5 мес. назад | Торрент скачан:20 раз
Скачать  

31-08-2020 13:47 Думай как собака Скачать торрент  

Думай как собака / Думай як пес / Think Like a Dog

Год выпуска: 2020
Страна: Китай, США, Великобритания
Жанр: Фантастика, драма, комедия, семейный
Продолжительность: 01:30:54
Перевод: Украинский (дублированный)
Субтитры: английские

Режиссер: Джил Джангер

В ролях: Гэбриел Бейтман, Джош Дюамель, Меган Фокс, Мэдисон Хорчер, Минхао Хоу, Исаак Ванг, Диллон Альф, Билли Джонстон, Кунал Найяр, Джанет Монтгомери

Описание: В ходе научного эксперимента 12-летний вундеркинд Оливер устанавливает телепатическую связь с любимым и, как оказалось, очень умным псом Генри. Благодаря подсказкам собаки парню удается решать проблемы в школе, дома и даже с девочками...
rating
скриншот  

Качество: BDRip-AVC
Формат: MKV
Видео: h.264, 720x388, 1 256 kb/s
Аудио 1: Украинский (AC3, 2 ch, 192 Кбит/с)
Аудио 2: английский (AC3, 6 ch, 448 Кбит/с)
скриншот   скриншот   скриншот  
General
Complete name : Think Like a Dog (2020) BDRip-AVC [UKR_ENG] [Hurtom].mkv
Format : Matroska
Format version : Version 4
File size : 1.21 GiB
Duration : 1 h 30 min
Overall bit rate : 1 898 kb/s
Movie name : Думай як пес / Think Like a Dog (2020)
Encoded date : UTC 2020-08-30 18:31:29
Writing application : mkvmerge v30.1.0 ('Forever And More') 64-bit
Writing library : libebml v1.3.6 + libmatroska v1.4.9
Cover : Yes
Attachments : cover.jpg

Video
ID : 1
Format : AVC
Format/Info : Advanced Video Codec
Format profile : High@L3.1
Format settings : 5 Ref Frames
Format settings, CABAC : No
Format settings, RefFrames : 5 frames
Codec ID : V_MPEG4/ISO/AVC
Duration : 1 h 30 min
Bit rate : 1 256 kb/s
Width : 720 pixels
Height : 388 pixels
Display aspect ratio : 1.85:1
Frame rate mode : Constant
Frame rate : 23.976 (24000/1001) FPS
Color space : YUV
Chroma subsampling : 4:2:0
Bit depth : 8 bits
Scan type : Progressive
Bits/(Pixel*Frame) : 0.188
Stream size : 817 MiB (66%)
Writing library : x264 core 160 r3000 33f9e14
Encoding settings : cabac=0 / ref=5 / deblock=1:-2:2 / analyse=0x3:0 / me=umh / subme=8 / psy=1 / psy_rd=1.00:0.00 / mixed_ref=0 / me_range=16 / chroma_me=1 / trellis=2 / 8x8dct=1 / cqm=0 / deadzone=21,11 / fast_pskip=0 / chroma_qp_offset=-2 / threads=12 / lookahead_threads=2 / sliced_threads=0 / nr=0 / decimate=0 / interlaced=0 / bluray_compat=0 / constrained_intra=0 / bframes=3 / b_pyramid=2 / b_adapt=1 / b_bias=0 / direct=3 / weightb=0 / open_gop=0 / weightp=2 / keyint=250 / keyint_min=23 / scenecut=40 / intra_refresh=0 / rc=crf / mbtree=0 / crf=19.0 / qcomp=0.60 / qpmin=0 / qpmax=69 / qpstep=4 / ip_ratio=1.40 / pb_ratio=1.30 / aq=1:0.70
Default : Yes
Forced : No
Color range : Limited
Matrix coefficients : BT.709

Audio #1
ID : 2
Format : AC-3
Format/Info : Audio Coding 3
Commercial name : Dolby Digital
Codec ID : A_AC3
Duration : 1 h 30 min
Bit rate mode : Constant
Bit rate : 192 kb/s
Channel(s) : 2 channels
Channel layout : L R
Sampling rate : 48.0 kHz
Frame rate : 31.250 FPS (1536 SPF)
Bit depth : 16 bits
Compression mode : Lossy
Stream size : 125 MiB (10%)
Title : AC3 2.0 | 192 | Line
Language : Ukrainian
Service kind : Complete Main
Default : Yes
Forced : No

Audio #2
ID : 3
Format : AC-3
Format/Info : Audio Coding 3
Commercial name : Dolby Digital
Codec ID : A_AC3
Duration : 1 h 30 min
Bit rate mode : Constant
Bit rate : 448 kb/s
Channel(s) : 6 channels
Channel layout : L R C LFE Ls Rs
Sampling rate : 48.0 kHz
Frame rate : 31.250 FPS (1536 SPF)
Bit depth : 16 bits
Compression mode : Lossy
Stream size : 291 MiB (24%)
Title : AC3 5.1 | 448
Language : English
Service kind : Complete Main
Default : No
Forced : No

Text
ID : 4
Format : UTF-8
Codec ID : S_TEXT/UTF8
Codec ID/Info : UTF-8 Plain Text
Duration : 1 h 25 min
Bit rate : 77 b/s
Count of elements : 1464
Stream size : 49.1 KiB (0%)
Language : English
Default : Yes
Forced : No

Menu
00:00:00.000 : en:Chapter 01
00:06:29.222 : en:Chapter 02
00:11:26.102 : en:Chapter 03
00:15:10.493 : en:Chapter 04
00:20:36.277 : en:Chapter 05
00:24:44.942 : en:Chapter 06
00:30:44.259 : en:Chapter 07
00:39:13.560 : en:Chapter 08
00:45:20.718 : en:Chapter 09
00:51:45.602 : en:Chapter 10
00:57:39.581 : en:Chapter 11
00:59:33.779 : en:Chapter 12
01:06:02.458 : en:Chapter 13
01:10:47.410 : en:Chapter 14
01:13:45.630 : en:Chapter 15
01:21:52.741 : en:Chapter 16

piratbit.org



Скачать Думай как собака через торрент https://i112.fastpic.ru/big/2020/0830/48/32087c1363b6278be6d8f03daedef048.jpg Скачать фильм Думай как собака через торрент бесплантно в хорошем качестве Описание: В ходе научного эксперимента 12-летний вундеркинд Оливер устанавливает телепатическую связь с любимым и, как оказалось, очень ... 7 10 3
Торрент: Зарегистрирован [2020-08-31 13:47] · скачан: 20 раз
Статус: √ проверено
Размер: 1.21 GB
Как cкачать? Как скачать Думай как собака через торрент | UTorrent

% Раздел Тема Автор DL S | L
Фильмы с украинским озвучиванием [ 5.58 GB ] Думай как собака / Думай як пес / Think Like a Dog [2020 BDRip 720p] [Ukr DUB] killermax2013 Скачать
1 | 0

28-11-2019 20:33  

Отключить всю рекламу на сайте

    Дорогой пользователь! Огромная просьба, поблагодарите релизера, оцените раздачу и оставьте свои комментарий, если Вы скачали Думай как собака через торрент бесплатно! Внесите свою лепту в развитие PiratBit!
    Комментировать посты могут только пользователи прошедшие не сложную регистрацию
    Показать сообщения:    

    Думай как собака через торрент
    Скачать бесплатно Думай как собака
    Думай как собака скачать торрент
    Думай как собака смотреть онлайн
    Cкачать фильм Думай как собака бесплатно
    Думай как собака скачать торрент в хорошем качестве
    Думай как собака смотреть онлайн бесплатно в хорошем качестве


    Вы не можете начинать темы
    Вы не можете отвечать на сообщения
    Вы не можете редактировать свои сообщения
    Вы не можете удалять свои сообщения
    Вы не можете голосовать в опросах
    Вы не можете прикреплять файлы к сообщениям
    Вы можете скачивать файлы