Marvel's Avengers Deluxe Edition (супер цена) 159р. Внимание количество ограничено!!!

2 сезон

iTunes

iTunes

1

iTunes

iTunes

iTunes

WEBRip

iTunes

30
pack

Новость дня

ВАЖНО

!!Акция!!

Alien_RageХит недели

RePack

Horizon Zero Dawn

ИГРА 18+

pack

RePack

jed

!!Акция!!

Alien_Rage

RePack

fifa19

RePack

Assassins Creed: Odyssey

RePack

NEED FOR SPEED™ PAYBACK

4 сезон

9 сезон

Бесстыжие 9 сезон

Все сериалы

все сериалы на PB.wtf

RePack

FAR CRY 5
  

Приключения Тинтина: Тайна Единорога / The Adventures of Tintin (Стивен Спилберг) [2011 г., мультфильм, боевик, детектив, приключения, семейный, WEB-DLRip 720p / 60 FPS, Дубляж, ( Open Matte )] от R.G. HD-Films piratbit.org

Приключения Тинтина: Тайна Единорога через торрент piratbit.org

Раздают: 18 [ 9 KB/s ]
Размер: 4.44 GB | Добавлен: 17 д. назад | Торрент скачан:96 раз
Скачать  

02-09-2020 15:18 Приключения Тинтина: Тайна Единорога Скачать торрент  

Приключения Тинтина: Тайна Единорога / The Adventures of Tintin
Год выпуска: 2011
Страна: США, Новая Зеландия, Великобритания
Жанр: мультфильм, боевик, детектив, приключения, семейный
Продолжительность: 01:47:16
Перевод: Дубляж
Субтитры: Russian, English

Режиссер: Стивен Спилберг

Бюджет: $140 000 000
Премьера в мире: 23 октября 2011

rating

Роли озвучивали: Джейми Белл, Энди Серкис, Дэниэл Крэйг, Саймон Пегг, Ник Фрост, Дэниэл Мейс, Гад Эльмалех, Тоби Джонс, Джо Старр, Енн Рейтел

Описание: Главный герой — молодой газетный репортёр Тинтин. Благодаря своей профессии он путешествует по всему миру и становится участником увлекательных приключений.

Качество: WEB-DLRip 720p / 60 FPS
Формат: MKV
Видео кодек: H.264
Аудио кодек: AC3
Видео: x264, 1280 x 720 ( 16:9 ), 5541 kbps, 60,000 fps, ( 0.100 bpp)
Аудио#1: Русский, AC-3, 48.0 KHz, 6 ch, 384 Kbps
Релиз от:

скриншот   скриншот   скриншот   скриншот   скриншот  Автор рипа: slaventi-69
x264 [info]: frame I:1389 Avg QP:17.11 size: 61241
x264 [info]: frame P:85902 Avg QP:18.69 size: 22166
x264 [info]: frame B:298520 Avg QP:21.62 size: 8255
x264 [info]: consecutive B-frames: 1.1% 1.9% 6.9% 13.0% 65.3% 11.8%

Общее
Уникальный идентификатор : 225859791867012408713219847918518584223 (0xA9EB037DD806A992A9B92C0F686CC39F)
Полное имя : F:\The.Adventures.of.Tintin.(2011).WEB-DLRip.720p.(60 Fps).(Open Matte).mkv
Формат : Matroska
Версия формата : Version 4
Размер файла : 4,44 Гбайт
Продолжительность : 1 ч. 47 м.
Общий поток : 5929 Кбит/сек
Название фильма : Приключения Тинтина: Тайна Единорога / The Adventures of Tintin (2011) WEB-DLRip 720p (60 Fps) | Open Matte
Дата кодирования : UTC 2020-09-01 14:39:12
Программа кодирования : mkvmerge v9.1.0 ('Little Earthquakes') 64bit
Библиотека кодирования : libebml v1.3.3 + libmatroska v1.4.4

Видео
Идентификатор : 1
Формат : AVC
Формат/Информация : Advanced Video Codec
Профиль формата : High@L4.1
Настройки формата : CABAC / 8 Ref Frames
Параметр CABAC формата : Да
Параметр RefFrames формата : 8 кадров
Идентификатор кодека : V_MPEG4/ISO/AVC
Продолжительность : 1 ч. 47 м.
Битрейт : 5541 Кбит/сек
Ширина : 1280 пикселей
Высота : 720 пикселей
Соотношение сторон : 16:9
Режим частоты кадров : Постоянный
Частота кадров : 60,000 кадров/сек
Цветовое пространство : YUV
Субдискретизация насыщенности : 4:2:0
Битовая глубина : 8 бит
Тип развёртки : Прогрессивная
Бит/(Пиксели*Кадры) : 0.100
Размер потока : 4,15 Гбайт (93%)
Заголовок : slaventi-69 ( R.G. HD-Films | 60 fps )
Библиотека кодирования : x264 core 130 r2273 b3065e6
Настройки программы : cabac=1 / ref=9 / deblock=1:-1:-1 / analyse=0x3:0x133 / me=umh / subme=9 / psy=1 / psy_rd=1.00:0.00 / mixed_ref=1 / me_range=26 / chroma_me=1 / trellis=2 / 8x8dct=1 / cqm=0 / deadzone=21,11 / fast_pskip=0 / chroma_qp_offset=-2 / threads=10 / lookahead_threads=4 / sliced_threads=0 / nr=0 / decimate=1 / interlaced=0 / bluray_compat=0 / constrained_intra=0 / bframes=5 / b_pyramid=1 / b_adapt=2 / b_bias=0 / direct=2 / weightb=1 / open_gop=0 / weightp=2 / keyint=600 / keyint_min=60 / scenecut=40 / intra_refresh=0 / rc=crf / mbtree=0 / crf=18.0 / qcomp=0.60 / qpmin=0 / qpmax=69 / qpstep=4 / ip_ratio=1.40 / pb_ratio=1.30 / aq=1:1.00
Язык : English
Default : Да
Forced : Нет

Аудио
Идентификатор : 2
Формат : AC-3
Формат/Информация : Audio Coding 3
Коммерческое название : Dolby Digital
Идентификатор кодека : A_AC3
Продолжительность : 1 ч. 47 м.
Вид битрейта : Постоянный
Битрейт : 384 Кбит/сек
Каналы : 6 каналов
Channel layout : L R C LFE Ls Rs
Частота : 48,0 КГц
Частота кадров : 31,250 кадров/сек (1536 SPF)
Битовая глубина : 16 бит
Метод сжатия : С потерями
Размер потока : 294 Мбайт (6%)
Заголовок : Dub
Язык : Russian
ServiceKind/String : Complete Main
Default : Да
Forced : Нет

Текст #1
Идентификатор : 3
Формат : UTF-8
Идентификатор кодека : S_TEXT/UTF8
Идентификатор кодека/Информация : UTF-8 Plain Text
Продолжительность : 1 ч. 38 м.
Битрейт : 84 бит/сек
ElementCount : 894
Размер потока : 61,1 Кбайт (0%)
Язык : Russian
Default : Нет
Forced : Нет

Текст #2
Идентификатор : 4
Формат : UTF-8
Идентификатор кодека : S_TEXT/UTF8
Идентификатор кодека/Информация : UTF-8 Plain Text
Продолжительность : 1 ч. 36 м.
Битрейт : 54 бит/сек
ElementCount : 1186
Размер потока : 38,1 Кбайт (0%)
Язык : English
Default : Нет
Forced : Нет

Меню
00:00:00.000 : :Chapter 01
00:05:39.297 : :Chapter 02
00:12:12.315 : :Chapter 03
00:17:11.364 : :Chapter 04
00:25:36.869 : :Chapter 05
00:32:37.581 : :Chapter 06
00:37:55.315 : :Chapter 07
00:42:29.839 : :Chapter 08
00:50:52.508 : :Chapter 09
00:56:27.217 : :Chapter 10
01:02:19.611 : :Chapter 11
01:11:58.981 : :Chapter 12
01:20:03.966 : :Chapter 13
01:27:30.996 : :Chapter 14
01:34:12.814 : :Chapter 15
01:40:30.483 : :Chapter 16

Просьба к переливающим на другие сайты, в оформлении указывайте пожалуйста авторство группы R.G. HD-Films piratbit.org



Скачать Приключения Тинтина: Тайна Единорога через торрент http://lostpix.com/img/2020-07/28/3iyhfmb4xy9p8b3b0xrwjzy9w.jpg Скачать фильм Приключения Тинтина: Тайна Единорога через торрент бесплантно в хорошем качестве Описание: Главный герой — молодой газетный репортёр Тинтин. Благодаря своей профессии он путешествует по всему миру и становится участником ... 9.9 10 8
Info! Золотая раздача, скачанное не засчитывается.
Торрент: Зарегистрирован [2020-09-02 15:18] · скачан: 96 раз
Статус: √ проверено
Размер: 4.44 GB
Как cкачать? Как скачать Приключения Тинтина: Тайна Единорога через торрент | qTorrent

28-11-2019 20:33  

Отключить всю рекламу на сайте

02-09-2020 16:13 Приключения Тинтина: Тайна Единорога Скачать торрент  

Раздача стала золотой благодаря:
shov_07(5000),

Спасибо за Золото.piratbit.org



02-09-2020 17:57 Приключения Тинтина: Тайна Единорога Скачать торрент  

продолжения быpiratbit.org



    Дорогой пользователь! Огромная просьба, поблагодарите релизера, оцените раздачу и оставьте свои комментарий, если Вы скачали Приключения Тинтина: Тайна Единорога через торрент бесплатно! Внесите свою лепту в развитие PiratBit!
    Комментировать посты могут только пользователи прошедшие не сложную регистрацию
    Показать сообщения:    

    Приключения Тинтина: Тайна Единорога через торрент
    Скачать бесплатно Приключения Тинтина: Тайна Единорога
    Приключения Тинтина: Тайна Единорога скачать торрент
    Приключения Тинтина: Тайна Единорога смотреть онлайн
    Cкачать фильм Приключения Тинтина: Тайна Единорога бесплатно
    Приключения Тинтина: Тайна Единорога скачать торрент в хорошем качестве
    Приключения Тинтина: Тайна Единорога смотреть онлайн бесплатно в хорошем качестве


    Вы не можете начинать темы
    Вы не можете отвечать на сообщения
    Вы не можете редактировать свои сообщения
    Вы не можете удалять свои сообщения
    Вы не можете голосовать в опросах
    Вы не можете прикреплять файлы к сообщениям
    Вы можете скачивать файлы