Доктор Стрэндж

Лицензия

Добыча

MVO

Дом дракона

1 сезон

Тор

Лицензия

Мэверик

Лицензия

Там, где раки поют

MVO

Властелин колец

1 сезон

Ultimate

pack

Рекомендуем

30

Repack

ВАЖНО

ВАЖНО

Ghostwire

RePack

jed

RePack

nioh2

RePack

RDR2

RePack

NEED FOR SPEED™ PAYBACK

RePack

скачать торрент

Кинопоиск HD

Острые козырьки 6 сезон

6 сезон

FAR CRY 6

RePack

скачать торрент

Лицензия

скачать торрент

MVO

1

1 сезон

скачать торрент

1 сезон

скачать торрент

Лицензия

  

Виват, гардемарины! (Светлана Дружинина) [1991, мелодрама, приключения, история, WEB-DL 1080p] - ExKinoRay

Виват, гардемарины! через торрент piratbit.org

Раздают: 10 [ 0 KB/s ]
Размер: 4.97 GB | Добавлен: 2 года 1 мес. назад | Торрент скачан:67 раз
Смотреть онлайн | Скачать   

04-09-2020 17:03 Виват, гардемарины! Скачать торрент  

Название: Виват, гардемарины!
Год выхода: 1991
Жанр: Мелодрама, приключения, история
Режиссёр: Светлана Дружинина
В ролях: Дмитрий Харатьян, Сергей Жигунов, Михаил Мамаев, Людмила Гурченко, Кристина Орбакайте, Михаил Боярский, Наталья Гундарева, Татьяна Лютаева, Л. Ванин, Евгений Евстигнеев, Михаил Ефремов, Ольга Машная, Паул Буткевич, Сергей Мигицко, Лидия Федосеева-Шукшина, Сергей Никоненко, Владимир Сошальский, Виктор Борцов, Владимир Балон, Леонид Сатановский

О фильме: Второй фильм историко-приключенческой трилогии о гардемаринах. Роскошный двор российской императрицы Елизаветы Петровны. Здесь начинаются очередные приключения трёх гардемаринов - учеников навигацкой школы. Им предстоит выполнить тайную миссию - сопровождать в столицу невесту наследника престола, будущую Великую Государыню России Екатерину II...



Выпущено: СССР
Продолжительность: 2 x 01:07:30
Перевод: Не требуется

Формат: MKV
Качество: WEB-DL 1080p
Видео: MPEG-4 AVC, 1920x1080 (16:9), 25.000 fps, ~ 5000 Kbps
Аудио : 48 kHz, AC3, 2.0, 192 Kbps | MVO | RUS |
General
Unique ID : 252263223021105022133923253716282090531 (0xBDC82127765EAF4F92C0D53DEE41A423)
Complete name : F:\Виват Гардемарины.01.1991.WEB-DL.1080p.ExKinoRay.mkv
Format : Matroska
Format version : Version 2
File size : 2.51 GiB
Duration : 1 h 7 min
Overall bit rate mode : Variable
Overall bit rate : 5 314 kb/s
Movie name : Виват, гардемарины! 01 1991 from ExKinoRay
Encoded date : UTC 2020-09-04 15:33:50
Writing application : mkvmerge v5.6.0 ('Kenya Kane') built on May 27 2012 16:44:04
Writing library : libebml v1.2.3 + libmatroska v1.3.0

Video
ID : 1
Format : AVC
Format/Info : Advanced Video Codec
Format profile : High@L4
Format settings, CABAC : Yes
Format settings, ReFrames : 4 frames
Codec ID : V_MPEG4/ISO/AVC
Duration : 1 h 7 min
Bit rate mode : Variable
Bit rate : 5 017 kb/s
Maximum bit rate : 40.0 Mb/s
Width : 1 920 pixels
Height : 1 080 pixels
Display aspect ratio : 16:9
Frame rate mode : Constant
Frame rate : 25.000 FPS
Color space : YUV
Chroma subsampling : 4:2:0
Bit depth : 8 bits
Scan type : Progressive
Bits/(Pixel*Frame) : 0.097
Stream size : 2.37 GiB (94%)
Default : Yes
Forced : No

Audio
ID : 2
Format : AC-3
Format/Info : Audio Coding 3
Mode extension : CM (complete main)
Format settings, Endianness : Big
Codec ID : A_AC3
Duration : 1 h 7 min
Bit rate mode : Constant
Bit rate : 192 kb/s
Channel(s) : 2 channels
Channel positions : Front: L R
Sampling rate : 48.0 kHz
Frame rate : 31.250 FPS (1536 spf)
Compression mode : Lossy
Stream size : 92.7 MiB (4%)
Language : Russian
Default : Yes
Forced : No


Релиз от:

Автор релиза:



Скачать Виват, гардемарины! через торрент http://i5-imageban-ru.translate.goog/out/2018/08/20/e276e7d18688467ed828667e6de9eff0.png Скачать, смотреть онлайн Виват, гардемарины! бесплантно в хорошем качестве О фильме: Второй фильм историко-приключенческой трилогии о гардемаринах. Роскошный двор российской императрицы Елизаветы Петровны. Здесь ... 8 10 3
Info! Золотая раздача, скачанное не засчитывается.
Торрент: Зарегистрирован [2020-09-04 17:03] · скачан: 67 раз
Статус: √ проверено
Размер: 4.97 GB
Как cкачать? Как скачать Виват, гардемарины! через торрент | UTorrent

28-11-2019 20:33  


Отключить вcю реклaмy на сайте, в т.ч. и в плеере онлайн просмотра!

    Дорогой пользователь! Огромная просьба, поблагодарите релизера, оцените раздачу и оставьте свои комментарий, если Вы скачали Виват, гардемарины! через торрент бесплатно!!
    Комментировать посты могут только пользователи прошедшие не сложную регистрацию
    Показать сообщения:    


    Виват, гардемарины! через торрент
    Скачать бесплатно Виват, гардемарины!
    Виват, гардемарины! скачать торрент
    Виват, гардемарины! смотреть онлайн
    Cкачать фильм Виват, гардемарины! бесплатно
    Виват, гардемарины! скачать торрент в хорошем качестве
    Виват, гардемарины! смотреть онлайн бесплатно в хорошем качестве
    Вы не можете начинать темы
    Вы не можете отвечать на сообщения
    Вы не можете редактировать свои сообщения
    Вы не можете удалять свои сообщения
    Вы не можете голосовать в опросах
    Вы не можете прикреплять файлы к сообщениям
    Вы можете скачивать файлы