Marvel's Avengers Deluxe Edition (супер цена) 159р. Внимание количество ограничено!!!

2 сезон

iTunes

iTunes

1

iTunes

iTunes

iTunes

WEBRip

iTunes

30
pack

Новость дня

ВАЖНО

!!Акция!!

Alien_RageХит недели

RePack

Horizon Zero Dawn

ИГРА 18+

pack

RePack

jed

!!Акция!!

Alien_Rage

RePack

fifa19

RePack

Assassins Creed: Odyssey

RePack

NEED FOR SPEED™ PAYBACK

4 сезон

9 сезон

Бесстыжие 9 сезон

Все сериалы

все сериалы на PB.wtf

RePack

FAR CRY 5
  

Страйк / Strike / Сезон: 1-3 / Серии 1-11 из 11 (Майкл Кейллор, Кирон Хоукс, Чарльз Старридж) [2017-2020, Триллер, драма, криминал, детектив, WEB-DL 1080p] [MVO] (LostFilm) piratbit.org

Страйк через торрент piratbit.org

Раздают: 2 [ 0 KB/s ] Качают: 1 [ 0 KB/s ]
Размер: 32.88 GB | Добавлен: 4 д. назад | Торрент скачан:13 раз
Скачать  

04-09-2020 17:28 Страйк Скачать торрент  

Страйк / Strike
Год выпуска: 2017-2020
Страна: Великобритания
Жанр: Триллер, драма, криминал, детектив
Продолжительность: 00:58:00
Перевод: Профессиональный (многоголосый, закадровый) *LostFilm*

Режиссёр: Майкл Кейллор, Кирон Хоукс, Чарльз Старридж

В ролях: Том Бёрк,Холлидей Грейнджер,Керр Логан,Лео Билл,Мартин Шоу

Описание: «Страйк» — сериал на основе детективных романов, написанных Дж.К. Роулинг под псевдонимом Роберт Гэлбрейт. Корморан Страйк — ветеран афганской войны, ставший частным детективом — работает в небольшом офисе на Датской улице в Лондоне. В расследованиях ему помогает секретарь Робин Эллакотт. Несмотря на физические и душевные травмы, уникальная проницательность и опыт Страйка позволяют ему раскрыть самые запутанные дела, которые полицию ставят в тупик.



Качество: WEB-DL 1080p
Формат: MKV
Видео: 1920x1080 (16:9), 23.976 fps, MPEG-4 AVC ~7 500 kbps
Аудио 1: 48 kHz, AC3, 2 ch, 384 kbps - MVO
Аудио 2: 48 kHz, AC3, 6 ch, 640 kbps - ENG
General
Unique ID : 240451752264855216616339295418963398585 (0xB4E552AF4213CC32854DB8CF5FDB0FB9)
Complete name : G:\Strike.1080p.LostFilm\Strike.S01E01.1080p.LostFilm.mkv
Format : Matroska
Format version : Version 4
File size : 3.85 GiB
Duration : 59 min 46 s
Overall bit rate mode : Variable
Overall bit rate : 9 214 kb/s
Encoded date : UTC 2020-08-10 12:44:49
Writing application : mkvmerge v9.1.0 ('Little Earthquakes') 32bit
Writing library : libebml v1.3.3 + libmatroska v1.4.4

Video
ID : 2
Format : AVC
Format/Info : Advanced Video Codec
Format profile : High@L4
Format settings : CABAC / 4 Ref Frames
Format settings, CABAC : Yes
Format settings, Reference : 4 frames
Codec ID : V_MPEG4/ISO/AVC
Duration : 59 min 46 s
Bit rate mode : Variable
Bit rate : 8 007 kb/s
Maximum bit rate : 15.0 Mb/s
Width : 1 920 pixels
Height : 1 080 pixels
Display aspect ratio : 16:9
Frame rate mode : Constant
Frame rate : 23.976 (24000/1001) FPS
Color space : YUV
Chroma subsampling : 4:2:0
Bit depth : 8 bits
Scan type : Progressive
Bits/(Pixel*Frame) : 0.161
Stream size : 3.34 GiB (87%)
Default : Yes
Forced : No
Color range : Limited
Color primaries : BT.709
Transfer characteristics : BT.709
Matrix coefficients : BT.709
Duration_Source : General_Duration

Audio #1
ID : 1
Format : AC-3
Format/Info : Audio Coding 3
Commercial name : Dolby Digital
Codec ID : A_AC3
Duration : 59 min 46 s
Bit rate mode : Constant
Bit rate : 384 kb/s
Channel(s) : 2 channels
Channel layout : L R
Sampling rate : 44.1 kHz
Frame rate : 28.711 FPS (1536 SPF)
Compression mode : Lossy
Delay relative to video : 30 ms
Stream size : 164 MiB (4%)
Title : LostFilm
Language : Russian
Service kind : Complete Main
Default : Yes
Forced : No
Duration_Source : General_Duration

Audio #2
ID : 3
Format : E-AC-3
Format/Info : Enhanced AC-3
Commercial name : Dolby Digital Plus
Codec ID : A_EAC3
Duration : 59 min 46 s
Bit rate mode : Constant
Bit rate : 640 kb/s
Channel(s) : 6 channels
Channel layout : L R C LFE Ls Rs
Sampling rate : 48.0 kHz
Frame rate : 31.250 FPS (1536 SPF)
Compression mode : Lossy
Stream size : 274 MiB (7%)
Language : English
Service kind : Complete Main
Default : No
Forced : No
Duration_Source : General_Duration

Text #1
ID : 4
Format : UTF-8
Codec ID : S_TEXT/UTF8
Codec ID/Info : UTF-8 Plain Text
Language : English
Default : No
Forced : No

Text #2
ID : 5
Format : UTF-8
Codec ID : S_TEXT/UTF8
Codec ID/Info : UTF-8 Plain Text
Title : SDH
Language : English
Default : No
Forced : No
скриншот  скриншот  скриншот  
Внимание! Раздача ведётся путём добавления новых серий; при каждом добавлении создаётся новый торрент. Чтобы начать докачку новой серии, пользователям необходимо сделать следующее:
(1) остановить скачивание,
(2) удалить старый торрент у себя из клиента (старые серии удалять не надо),
(3) скачать новый торрент и запустить его у себя в клиенте вместо старого, при этом указать клиенту путь в старую папку куда и должно происходить скачивание новых серий.

Ваш клиент при этом должен произвести хеширование (проверку) старой папки (если не производит сам - помогите ему сделать это), и будет докачивать только те серии которых у вас ещё нет. Старые серии при этом не удаляются, а продолжают раздаваться!

Eсли вы уже удалили старые серии, то предотвратить повторную закачку старых серий можно, отжав галочку в соответствующих местах при запуске нового торрента. По возможности, желательно не удалять старые серии как можно дольше чтобы релизёр не столько продолжал раздавать старые серии, а смог сконцентрироваться на новых.
piratbit.org



Скачать Страйк через торрент https://i112.fastpic.ru/big/2020/0904/6f/a86bd4c4cc8743afe2386c525003116f.jpeg Скачать фильм Страйк через торрент бесплантно в хорошем качестве Описание: «Страйк» — сериал на основе детективных романов, написанных Дж.К. Роулинг под псевдонимом Роберт Гэлбрейт. Корморан Страйк — ... 10 10 2
Торрент: Зарегистрирован [2020-09-16 12:29] · скачан: 13 раз
Статус: √ проверено
Размер: 32.88 GB
Как cкачать? Как скачать Страйк через торрент | qTorrent

28-11-2019 20:33  

Отключить всю рекламу на сайте

16-09-2020 13:01 Страйк Скачать торрент  

Привет Спасибоpiratbit.org
Kkillermax2013 писал(а):

Привет.Пожалуйста ))



    Дорогой пользователь! Огромная просьба, поблагодарите релизера, оцените раздачу и оставьте свои комментарий, если Вы скачали Страйк через торрент бесплатно! Внесите свою лепту в развитие PiratBit!
    Комментировать посты могут только пользователи прошедшие не сложную регистрацию
    Показать сообщения:    

    Страйк через торрент
    Скачать бесплатно Страйк
    Страйк скачать торрент
    Страйк смотреть онлайн
    Cкачать фильм Страйк бесплатно
    Страйк скачать торрент в хорошем качестве
    Страйк смотреть онлайн бесплатно в хорошем качестве


    Вы не можете начинать темы
    Вы не можете отвечать на сообщения
    Вы не можете редактировать свои сообщения
    Вы не можете удалять свои сообщения
    Вы не можете голосовать в опросах
    Вы не можете прикреплять файлы к сообщениям
    Вы можете скачивать файлы