2 сезон

iTunes

WEBRip

1

2 сезон

iTunes

1 сезон

1 сезон

RePack

30

Новинка

ВАЖНО

ИГРА 18+

pack

RePack

MK11
pack

Легкие деньги

RePack

jed

RePack

fifa19

RePack

RDR2

RePack

NEED FOR SPEED™ PAYBACK

4 сезон

9 сезон

Бесстыжие 9 сезон

Все сериалы

все сериалы на PB.wtf

RePack

FAR CRY 5

Anonymous, добрый день, мы не успеваем собрать деньги на оплату серверов за февраль, помогите нам пожалуйста в это трудное время. В качестве благодарности мы отключим Вам всю рекламу на сайте (укажите свой ник в строку Ваше имя)!

×
  
Magnet ссылка

Пацаны / The Boys / Сезон 2 / Серии 1- из 8 (Филип Сгриккиа , Дэниэл Эттиэс, Дженнифер Фанг) [2020, фантастика, боевик, комедия, криминал, WEBRip 1080p] [Ukr MVO] (студия Цікава ідея) piratbit.org

Пацаны через торрент piratbit.org

Размер: 3.79 GB | Добавлен: 5 мес. 26 д. назад | Торрент скачан:17 раз
Скачать  

05-09-2020 17:38 Пацаны Скачать торрент  

Пацаны / Хлопаки / The Boys Год выпуска: 2020
Страна: США
Жанр: фантастика, боевик, комедия, криминал
Продолжительность: ~01:00:00
Перевод: Украинский (профессиональный, многоголосный) [студия Цікава ідея]

Режиссеры: Филип Сгриккиа, Дэниэл Эттиэс, Дженнифер Фанг

В ролях: Карл Урбан, Доминик МакЭллигот, Эрин Мориарти, Элизабет Шу, Энтони Старр, Дженнифер Эспозито, Саймон Пегг, Шантель Ван Сантен, Хэйли Джоэл Осмент, Чейс Кроуфорд, Нэйтан Митчелл, Джек Куэйд, Джесси Ашер, Билли Зейн, Джим Бивер, Лас Алонсо, жанкарло Эспозито, Джимми Фэллон, Тара Рид, Сет Роген и др.

Описание: Действие сериала разворачивается в мире, где существуют супергерои. Именно они являются настоящими звездами. Их все знают и обожают. Но за идеальным фасадом скрывается гораздо более мрачный мир наркотиков и секса, а большинство героев — в жизни не самые приятные люди. Для контроля за супергероями ЦРУ создает специальный отряд, неофициально известный как «Пацаны», суровые члены которого всегда готовы поставить зазнавшегося героя на место самым жестоким способом.

rating

Качество: WEBRip 1080p
Формат: MKV
Видео: 1920х800, 23.976 fps, MPEG-4 AVC ~7 364 kbps avg
Аудио Ukr: 48 kHz, AC3 Dolby Digital, 6 ch, ~448.00 kbps
Аудио Eng: 48 kHz, E-AC3 Dolby Digital, 6 ch, ~640.00 kbps
скриншот   скриншот   скриншот  
Format : Matroska
Format version : Version 4
File size : 3.79 GiB
Duration : 1 h 2 min
Overall bit rate mode : Constant
Overall bit rate : 8 624 kb/s
Movie name : Хлопаки / The Boys - S02E01 (2020) WEBRip 1080p [Ukr.Eng] [Цікава Ідея]
Encoded date : UTC 2020-09-04 20:03:32
Writing application : mkvmerge v6.8.0 ('Theme for Great Cities') 32bit built on Mar 2 2014 21:27:07
Writing library : libebml v1.3.0 + libmatroska v1.4.1
Cover : Yes
Attachments : cover.jpg

Video
ID : 1
Format : AVC
Format/Info : Advanced Video Codec
Format profile : High@L4
Format settings : CABAC / 4 Ref Frames
Format settings, CABAC : Yes
Format settings, Reference : 4 frames
Codec ID : V_MPEG4/ISO/AVC
Duration : 1 h 2 min
Bit rate mode : Constant
Bit rate : 7 364 kb/s
Nominal bit rate : 10 000 kb/s
Width : 1 920 pixels
Height : 800 pixels
Display aspect ratio : 2.40:1
Frame rate mode : Constant
Frame rate : 23.976 (24000/1001) FPS
Color space : YUV
Chroma subsampling : 4:2:0
Bit depth : 8 bits
Scan type : Progressive
Bits/(Pixel*Frame) : 0.200
Stream size : 3.24 GiB (85%)
Default : Yes
Forced : No
Color range : Limited
Color primaries : BT.709
Transfer characteristics : BT.709
Matrix coefficients : BT.709

Audio #1
ID : 2
Format : AC-3
Format/Info : Audio Coding 3
Commercial name : Dolby Digital
Codec ID : A_AC3
Duration : 1 h 2 min
Bit rate mode : Constant
Bit rate : 448 kb/s
Channel(s) : 6 channels
Channel layout : L R C LFE Ls Rs
Sampling rate : 48.0 kHz
Frame rate : 31.250 FPS (1536 SPF)
Bit depth : 16 bits
Compression mode : Lossy
Stream size : 202 MiB (5%)
Title : Цікава Ідея
Language : Ukrainian
Service kind : Complete Main
Default : Yes
Forced : No

Audio #2
ID : 3
Format : E-AC-3
Format/Info : Enhanced AC-3
Commercial name : Dolby Digital Plus
Codec ID : A_EAC3
Duration : 1 h 2 min
Bit rate mode : Constant
Bit rate : 640 kb/s
Channel(s) : 6 channels
Channel layout : L R C LFE Ls Rs
Sampling rate : 48.0 kHz
Frame rate : 31.250 FPS (1536 SPF)
Compression mode : Lossy
Stream size : 288 MiB (7%)
Title : Original
Language : English
Service kind : Complete Main
Default : No
Forced : No
Внимание! Раздача ведётся путём добавления новых серий; при каждом добавлении создаётся новый торрент. Чтобы начать докачку новой серии, пользователям необходимо сделать следующее:
(1) остановить скачивание,
(2) удалить старый торрент у себя из клиента (старые серии удалять не надо),
(3) скачать новый торрент и запустить его у себя в клиенте вместо старого, при этом указать клиенту путь в старую папку куда и должно происходить скачивание новых серий.

Ваш клиент при этом должен произвести хеширование (проверку) старой папки (если не производит сам - помогите ему сделать это), и будет докачивать только те серии которых у вас ещё нет. Старые серии при этом не удаляются, а продолжают раздаваться!

Eсли вы уже удалили старые серии, то предотвратить повторную закачку старых серий можно, отжав галочку в соответствующих местах при запуске нового торрента. По возможности, желательно не удалять старые серии как можно дольше чтобы релизёр не столько продолжал раздавать старые серии, а смог сконцентрироваться на новых.
piratbit.org



Скачать Пацаны через торрент https://i112.fastpic.ru/big/2020/0905/b3/24f4d785c446eac32256f1df561e93b3.jpg Скачать фильм Пацаны через торрент бесплантно в хорошем качестве Описание: Действие сериала разворачивается в мире, где существуют супергерои. Именно они являются настоящими звездами. Их все знают и ... 10 10 1
Торрент: Зарегистрирован [2020-09-05 17:38] · скачан: 17 раз
Статус: √ проверено
Размер: 3.79 GB
Как cкачать? Как скачать Пацаны через торрент | UTorrent

% Раздел Тема Автор DL S | L
Зарубежные сериалы [ 8.31 GB ] Пацаны / The Boys / Сезон: 2 / Серии: 1-8 из 8 [2020 WEBRip] MVO [TVShows] bober100 Скачать
1 | 0
Зарубежные сериалы [ 30.15 GB ] Пацаны / The Boys / Сезон: 2 / Серии: 1-8 из 8 [2020 WEB-DL 1080p] DVO [Кубик в Кубе] bober100 Скачать
3 | 0
Зарубежные сериалы [ 7.95 GB ] Пацаны / The Boys / Сезон: 2 / Серии 1-8 из 8 [2020 WEB-DLRip-AVC] MVO [LostFilm] GEKADOL Скачать
5 | 0
Зарубежные сериалы [ 13.54 GB ] Пацаны / The Boys / Сезон: 2 / Серии: 1-8 из 8 [2020 WEB-DLRip-AVC] [DVO] killermax2013 Скачать
4 | 0
Зарубежные сериалы [ 9.22 GB ] Пацаны / The Boys / Сезон: 2 / Серии: 1-8 из 8 [2020 WEB-DLRip] DVO [Кубик в Кубе] GEKADOL Скачать
2 | 2
Зарубежные сериалы [ 39.3 GB ] Пацаны / The Boys / Сезон: 2 / Серии: 1-8 из 8 [2020 WEBRip 1080p] 4xMVO+DVO [Кубик в Кубе] bober100 Скачать
3 | 1
Фильмы без перевода [ 28.61 GB ] Пацаны / The Boys / Сезон: 2 / Серии: 1-8 из 8 [2020 WEB-DL 1080p] [Multi Sub] killermax2013 Скачать
1 | 0

28-11-2019 20:33  

Отключить всю рекламу на сайте

    Дорогой пользователь! Огромная просьба, поблагодарите релизера, оцените раздачу и оставьте свои комментарий, если Вы скачали Пацаны через торрент бесплатно! Внесите свою лепту в развитие PiratBit!
    Комментировать посты могут только пользователи прошедшие не сложную регистрацию
    Показать сообщения:    

    Пацаны через торрент
    Скачать бесплатно Пацаны
    Пацаны скачать торрент
    Пацаны смотреть онлайн
    Cкачать фильм Пацаны бесплатно
    Пацаны скачать торрент в хорошем качестве
    Пацаны смотреть онлайн бесплатно в хорошем качестве


    Вы не можете начинать темы
    Вы не можете отвечать на сообщения
    Вы не можете редактировать свои сообщения
    Вы не можете удалять свои сообщения
    Вы не можете голосовать в опросах
    Вы не можете прикреплять файлы к сообщениям
    Вы можете скачивать файлы