Достать ножи: Стеклянная луковица

MVO

Добыча

Дубляж

Уэнсдэй

1 сезон

Тор

Дубляж

13 клиническая

1 сезон

Жестокая ночь

MVO

Одни из нас

1 сезон

Deluxe

pack

Рекомендуем

30

Пиратка

ВАЖНО

ВАЖНО

Ghostwire

Пиратка

jed

RePack

nioh2

RePack

RDR2

RePack

NEED FOR SPEED™ PAYBACK

RePack

скачать торрент

Кинопоиск HD

Острые козырьки 6 сезон

6 сезон

FAR CRY 6

RePack

скачать торрент

Лицензия

скачать торрент

MVO

1

1 сезон

скачать торрент

1 сезон

скачать торрент

Лицензия

  

Балбесы / The Goonies (Ричард Доннер) [1985, комедия, приключения, семейный, UHD BDRemux 2160p] (4K, HDR) [MVO+3x AVO]

Балбесы через торрент piratbit.org

Размер: 60.08 GB | Добавлен: 2 года 4 мес. назад | Торрент скачан:15 раз
Смотреть онлайн | Скачать | Поддержите нас   

10-09-2020 06:22 Балбесы Скачать торрент  


Балбесы / The Goonies


Год выхода: 1985
Жанр: Комедия, приключения, семейный
Страна: США
Студия: Amblin Entertainment, Warner Bros. Pictures
Продолжительность: 01:53:57
Перевод(ы):
#1: Профессиональный многоголосый | Киномания
#2: Авторский одноголосый (Володарский Леонид)
#3: Авторский одноголосый (Петр Гланц)
#4: Авторский одноголосый (Михалев Алексей)
Субтитры: Русские (Full), английские

Режиссер: Ричард Доннер

В ролях: Шон Эстин, Джош Бролин, Джефф Коэн, Кори Фельдман, Керри Грин, Марта Плимптон, Джонатан Ке Кван, Роберт Дави, Джо Пантолиано

Описание: Команда маленьких героев пускается в самое опасное в их жизни путешествие! Они ищут сокровища, которые спрятал 300 лет назад пират Одноглазый Билли. С помощью найденной на чердаке таинственной карты они спускаются в подземный мир глубоких пещер, опасных ловушек, чтобы найти пиратский галеон, полный золотых дублонов. Но самая большая опасность уже наступает им на пятки: это — банда злодеев… и загадочный монстр!



Качество: BDRemux 2160p
Формат: MKV
Видео: 3840x2160 at 23.976 fps, MPEG-H HEVC HDR Video, 63700 kbps avg
Аудио #01: 48 kHz, AC3, 5.1, 384 Kbps | Киномания | RUS |
Аудио #02: 48 kHz, AC3, 5.1, 192 Kbps | Володарский | RUS |
Аудио #03: 48 kHz, DTS-HD MA, 5.1, 4366 Kbps | Гланц | RUS |
Аудио #04: 48 kHz, DTS-HD MA, 5.1, 4469 Kbps | Михалев | RUS |
Аудио #05: 48 kHz, DTS-HD MA, 5.1, 2300 Kbps | Оригинал | ENG |
General

Unique ID : 328520657995694543849166337690811919027 (0xF726C6FA679252607D11BBAB639E6AB3)

Complete name : D:Video111The.Goonies.1985.BDREMUX.2160p.HDR.seleZen.mkv

Format : Matroska

Format version : Version 4

File size : 60.1 GiB

Duration : 1 h 54 min

Overall bit rate mode : Variable

Overall bit rate : 75.2 Mb/s

Movie name : The Goonies 1985 from селезень

Encoded date : UTC 2020-09-09 19:58:53

Writing application : mkvmerge v40.0.0 ('Old Town Road + Pony') 64-bit

Writing library : libebml v1.3.9 + libmatroska v1.5.2

Video

ID : 1

Format : HEVC

Format/Info : High Efficiency Video Coding

Format profile : Main 10@L5.1@High

HDR format : SMPTE ST 2086, HDR10 compatible

Codec ID : V_MPEGH/ISO/HEVC

Duration : 1 h 53 min

Bit rate : 63.7 Mb/s

Width : 3 840 pixels

Height : 2 160 pixels

Display aspect ratio : 16:9

Frame rate mode : Constant

Frame rate : 23.976 (24000/1001) FPS

Color space : YUV

Chroma subsampling : 4:2:0 (Type 2)

Bit depth : 10 bits

Bits/(Pixel*Frame) : 0.321

Stream size : 50.7 GiB (84%)

Writing library : ATEME Titan File 3.9.0 (4.9.0.0)

Language : English

Default : No

Forced : No

Color range : Limited

Color primaries : BT.2020

Transfer characteristics : PQ

Matrix coefficients : BT.2020 non-constant

Mastering display color pri : Display P3

Mastering display luminance : min: 0.0050 cd/m2, max: 4000 cd/m2

Maximum Content Light Level : 343 cd/m2

Maximum Frame-Average Light : 106 cd/m2

Audio #1

ID : 2

Format : AC-3

Format/Info : Audio Coding 3

Commercial name : Dolby Digital

Codec ID : A_AC3

Duration : 1 h 54 min

Bit rate mode : Constant

Bit rate : 384 kb/s

Channel(s) : 6 channels

Channel layout : L R C LFE Ls Rs

Sampling rate : 48.0 kHz

Frame rate : 31.250 FPS (1536 SPF)

Compression mode : Lossy

Stream size : 314 MiB (1%)

Title : MVO [Киномания]

Language : Russian

Service kind : Complete Main

Default : Yes

Forced : Yes

Audio #2

ID : 3

Format : AC-3

Format/Info : Audio Coding 3

Commercial name : Dolby Digital

Codec ID : A_AC3

Duration : 1 h 53 min

Bit rate mode : Constant

Bit rate : 192 kb/s

Channel(s) : 2 channels

Channel layout : L R

Sampling rate : 48.0 kHz

Frame rate : 31.250 FPS (1536 SPF)

Compression mode : Lossy

Stream size : 156 MiB (0%)

Title : AVO [Л. Володарский]

Language : Russian

Service kind : Complete Main

Default : No

Forced : No

Audio #3

ID : 4

Format : DTS XLL

Format/Info : Digital Theater Systems

Commercial name : DTS-HD Master Audio

Codec ID : A_DTS

Duration : 1 h 53 min

Bit rate mode : Variable

Bit rate : 4 366 kb/s

Channel(s) : 6 channels

Channel layout : C L R Ls Rs LFE

Sampling rate : 48.0 kHz

Frame rate : 93.750 FPS (512 SPF)

Bit depth : 24 bits

Compression mode : Lossless

Stream size : 3.47 GiB (6%)

Title : AVO [П.Гланц]

Language : Russian

Default : No

Forced : No

Audio #4

ID : 5

Format : DTS XLL

Format/Info : Digital Theater Systems

Commercial name : DTS-HD Master Audio

Codec ID : A_DTS

Duration : 1 h 53 min

Bit rate mode : Variable

Bit rate : 4 469 kb/s

Channel(s) : 6 channels

Channel layout : C L R Ls Rs LFE

Sampling rate : 48.0 kHz

Frame rate : 93.750 FPS (512 SPF)

Bit depth : 24 bits

Compression mode : Lossless

Stream size : 3.56 GiB (6%)

Title : AVO [A.Михалёв]

Language : Russian

Default : No

Forced : No

Audio #5

ID : 6

Format : DTS XLL

Format/Info : Digital Theater Systems

Commercial name : DTS-HD Master Audio

Codec ID : A_DTS

Duration : 1 h 53 min

Bit rate mode : Variable

Bit rate : 2 300 kb/s

Channel(s) : 6 channels

Channel layout : C L R Ls Rs LFE

Sampling rate : 48.0 kHz

Frame rate : 93.750 FPS (512 SPF)

Bit depth : 16 bits

Compression mode : Lossless

Stream size : 1.83 GiB (3%)

Title : Original

Language : English

Default : No

Forced : No

Text #1

ID : 7

Format : UTF-8

Codec ID : S_TEXT/UTF8

Codec ID/Info : UTF-8 Plain Text

Duration : 1 h 47 min

Bit rate : 94 b/s

Count of elements : 1162

Stream size : 74.2 KiB (0%)

Title : Full

Language : Russian

Default : No

Forced : No

Text #2

ID : 8

Format : UTF-8

Codec ID : S_TEXT/UTF8

Codec ID/Info : UTF-8 Plain Text

Duration : 1 h 53 min

Bit rate : 54 b/s

Count of elements : 1363

Stream size : 45.4 KiB (0%)

Title : Full

Language : English

Default : No

Forced : No

Menu

00:00:00.000 : en:Chapter 01

00:05:04.554 : en:Chapter 02

00:07:08.636 : en:Chapter 03

00:09:54.302 : en:Chapter 04

00:13:49.370 : en:Chapter 05

00:20:02.159 : en:Chapter 06

00:22:44.738 : en:Chapter 07

00:25:37.327 : en:Chapter 08

00:27:13.006 : en:Chapter 09

00:30:40.421 : en:Chapter 10

00:33:33.970 : en:Chapter 11

00:36:48.164 : en:Chapter 12

00:38:42.194 : en:Chapter 13

00:42:13.113 : en:Chapter 14

00:46:10.434 : en:Chapter 15

00:48:42.836 : en:Chapter 16

00:49:47.442 : en:Chapter 17

00:52:52.002 : en:Chapter 18

00:55:47.802 : en:Chapter 19

00:58:12.155 : en:Chapter 20

00:59:31.150 : en:Chapter 21

01:03:34.018 : en:Chapter 22

01:07:11.736 : en:Chapter 23

01:09:45.681 : en:Chapter 24

01:12:47.571 : en:Chapter 25

01:15:19.848 : en:Chapter 26

01:18:18.443 : en:Chapter 27

01:22:06.630 : en:Chapter 28

01:23:39.639 : en:Chapter 29

01:27:14.896 : en:Chapter 30

01:30:33.970 : en:Chapter 31

01:33:39.113 : en:Chapter 32

01:38:38.704 : en:Chapter 33

01:41:27.456 : en:Chapter 34

01:45:15.058 : en:Chapter 35

01:47:13.051 : en:Chapter 36

01:48:31.004 : en:Chapter 37
скриншот  скриншот  скриншот  



Скачать Балбесы через торрент https://d.radikal.ru/d01/2009/4a/c14d4e70d498.jpg Скачать, смотреть онлайн Балбесы бесплантно в хорошем качестве Описание: Команда маленьких героев пускается в самое опасное в их жизни путешествие! Они ищут сокровища, которые спрятал 300 лет назад ... 10 10 4
Торрент: Зарегистрирован [2020-09-10 06:22] · скачан: 15 раз
Статус: √ проверено
Размер: 60.08 GB
Как cкачать? Как скачать Балбесы через торрент | UTorrent

% Раздел Тема Автор DL S | L
Фильмы с авторской озвучкой [ 2.17 GB ] Балбесы / The Goonies | AVO | BDRip killermax2013 Скачать
1 | 0

28-11-2019 20:33  


Отключить вcю реклaмy на сайте, в т.ч. и в плеере онлайн просмотра!

    Дорогой пользователь! Огромная просьба, поблагодарите релизера, оцените раздачу и оставьте свои комментарий, если Вы скачали Балбесы через торрент бесплатно!!
    Комментировать посты могут только пользователи прошедшие не сложную регистрацию
    Показать сообщения:    


    Балбесы через торрент
    Скачать бесплатно Балбесы
    Балбесы скачать торрент
    Балбесы смотреть онлайн
    Cкачать фильм Балбесы бесплатно
    Балбесы скачать торрент в хорошем качестве
    Балбесы смотреть онлайн бесплатно в хорошем качестве
    Вы не можете начинать темы
    Вы не можете отвечать на сообщения
    Вы не можете редактировать свои сообщения
    Вы не можете удалять свои сообщения
    Вы не можете голосовать в опросах
    Вы не можете прикреплять файлы к сообщениям
    Вы можете скачивать файлы
    Балбесы / The Goonies [1985, комедия, приключения, семейный, UHD BDRemux 2160p] [MVO+3x AVO] смотреть онлайн, скачать торрент picoco.icu