2 сезон

iTunes

WEBRip

1

2 сезон

iTunes

1 сезон

1 сезон

RePack

30

Ultimate

ВАЖНО

ИГРА 18+

pack

RePack

MK11
pack

Легкие деньги

RePack

jed

RePack

fifa19

RePack

RDR2

RePack

NEED FOR SPEED™ PAYBACK

4 сезон

9 сезон

Бесстыжие 9 сезон

Все сериалы

все сериалы на PB.wtf

RePack

FAR CRY 5

Anonymous, доброй ночи, мы не успеваем собрать деньги на оплату серверов за февраль, помогите нам пожалуйста в это трудное время. В качестве благодарности мы отключим Вам всю рекламу на сайте (укажите свой ник в строку Ваше имя)!

×
  
Magnet ссылка

Львица / Rogue (М. Дж. Бассетт) [2020, боевик, BDRip 1080p] [Ukr DUB] piratbit.org

Львица через торрент piratbit.org

Размер: 11.31 GB | Добавлен: 5 мес. 27 д. назад | Торрент скачан:18 раз
Скачать  

10-09-2020 08:14 Львица Скачать торрент  

Львица / Хижачка / Rogue Год выхода: 2020
Жанр: Боевик
Страна: Великобритания, ЮАР
Студия: Grindstone Entertainment Group, Hassell Free Production, Mannequin Pictures
Продолжительность: 01:45:59
Перевод: Украинский (дублированный)
Субтитры: Украинские, английские

Режиссер: М. Дж. Бассетт

В ролях: Меган Фокс, Джессика Саттон, Филип Уинчестер, Каллиопе Джейн Тейлор, Ли-Энн Либенберг, Брэндон Оре, Грег Крик, Адам Дикон, Тамер Барджаг, Сисанда Хэнна

О фильме:
Саманта возглавляет команду наемников, которая отправляется в Африку, чтобы спасти похищенную дочь местного губернатора. Но когда операция срывается, команда оказывается в самом сердце африканской пустыни, а по следам за ними идут не только похитители, но и разъяренные львы.

rating

Качество: BDRip 1080p
Формат: MKV
Видео: MPEG-4 AVC, 13.6 Мбит/с, 1920x802, 23.976 кадр/с
Аудио #1: Русский, AC3, 48 Гц, 192 Кбит/сек, 2 ch - Ukr DUB
Аудио #2: Английский, DTS, 48 Гц, 1536 Кбит/сек, 6 ch
скриншот  скриншот  скриншот  
General
Complete name : Rogue (2020) BDRip 1080p [Ukr, Eng] [Hurtom].mkv
Format : Matroska
Format version : Version 4
File size : 11.3 GiB
Duration : 1 h 45 min
Overall bit rate : 15.3 Mb/s
Movie name : Хижачка / Rogue (2020)
Encoded date : UTC 2020-09-10 06:56:54
Writing application : mkvmerge v30.1.0 ('Forever And More') 64-bit
Writing library : libebml v1.3.6 + libmatroska v1.4.9
Cover : Yes
Attachments : cover.jpg

Video
ID : 1
Format : AVC
Format/Info : Advanced Video Codec
Format profile : High@L4.1
Format settings : CABAC / 5 Ref Frames
Format settings, CABAC : Yes
Format settings, RefFrames : 5 frames
Codec ID : V_MPEG4/ISO/AVC
Duration : 1 h 45 min
Bit rate : 13.6 Mb/s
Width : 1 920 pixels
Height : 802 pixels
Display aspect ratio : 2.40:1
Frame rate mode : Constant
Frame rate : 23.976 (24000/1001) FPS
Color space : YUV
Chroma subsampling : 4:2:0
Bit depth : 8 bits
Scan type : Progressive
Bits/(Pixel*Frame) : 0.367
Stream size : 10.0 GiB (89%)
Title : Хижачка / Rogue (2020)
Writing library : x264 core 161 r3018 db0d417
Encoding settings : cabac=1 / ref=5 / deblock=1:-3:-3 / analyse=0x3:0x133 / me=umh / subme=11 / psy=1 / psy_rd=1.00:0.10 / mixed_ref=1 / me_range=32 / chroma_me=1 / trellis=2 / 8x8dct=1 / cqm=0 / deadzone=21,11 / fast_pskip=0 / chroma_qp_offset=-3 / threads=12 / lookahead_threads=1 / sliced_threads=0 / nr=0 / decimate=0 / interlaced=0 / bluray_compat=0 / constrained_intra=0 / bframes=10 / b_pyramid=2 / b_adapt=2 / b_bias=0 / direct=3 / weightb=1 / open_gop=0 / weightp=2 / keyint=240 / keyint_min=23 / scenecut=40 / intra_refresh=0 / rc=2pass / mbtree=0 / bitrate=13555 / ratetol=1.0 / qcomp=0.65 / qpmin=0 / qpmax=69 / qpstep=4 / cplxblur=20.0 / qblur=0.5 / ip_ratio=1.18 / pb_ratio=1.20 / aq=1:0.90
Language : English
Default : Yes
Forced : No

Audio #1
ID : 2
Format : AC-3
Format/Info : Audio Coding 3
Commercial name : Dolby Digital
Codec ID : A_AC3
Duration : 1 h 45 min
Bit rate mode : Constant
Bit rate : 192 kb/s
Channel(s) : 2 channels
Channel layout : L R
Sampling rate : 48.0 kHz
Frame rate : 31.250 FPS (1536 SPF)
Bit depth : 16 bits
Compression mode : Lossy
Stream size : 146 MiB (1%)
Title : AC3 2.0 | 192 | Line |
Language : Ukrainian
Service kind : Complete Main
Default : Yes
Forced : No

Audio #2
ID : 3
Format : DTS
Format/Info : Digital Theater Systems
Codec ID : A_DTS
Duration : 1 h 45 min
Bit rate mode : Constant
Bit rate : 1 536 kb/s
Channel(s) : 6 channels
Channel layout : C L R Ls Rs LFE
Sampling rate : 48.0 kHz
Frame rate : 93.750 FPS (512 SPF)
Bit depth : 16 bits
Compression mode : Lossy
Stream size : 1.14 GiB (10%)
Title : DTS 5.1 | 1536
Language : English
Default : No
Forced : No

Text #1
ID : 4
Format : UTF-8
Codec ID : S_TEXT/UTF8
Codec ID/Info : UTF-8 Plain Text
Duration : 1 h 33 min
Bit rate : 2 b/s
Count of elements : 19
Stream size : 1.42 KiB (0%)
Title : Forced
Language : Ukrainian
Default : Yes
Forced : No

Text #2
ID : 5
Format : UTF-8
Codec ID : S_TEXT/UTF8
Codec ID/Info : UTF-8 Plain Text
Duration : 1 h 38 min
Bit rate : 51 b/s
Count of elements : 1319
Stream size : 37.0 KiB (0%)
Title : Full
Language : English
Default : No
Forced : No

piratbit.org



Скачать Львица через торрент https://i112.fastpic.ru/big/2020/0910/6f/98bfda21eb72e130f6a3f0ffae1a7c6f.jpg Скачать фильм Львица через торрент бесплантно в хорошем качестве О фильме:Саманта возглавляет команду наемников, которая отправляется в Африку, чтобы спасти похищенную дочь местного губернатора. Но когда ... 5.5 10 4
Торрент: Зарегистрирован [2020-09-10 08:14] · скачан: 18 раз
Статус: √ проверено
Размер: 11.31 GB
Как cкачать? Как скачать Львица через торрент | UTorrent

% Раздел Тема Автор DL S | L
Фильмы 2019-2020 [DVDrip, WEB-DLRip, HDrip] (DUB, MVO) [ 1.46 GB ] Львица / Rogue [2020 BDRip] DUB Twi7ter Скачать
4 | 1
Фильмы 2019-2020 [DVDrip, WEB-DLRip, HDrip] (DUB, MVO) [ 1.46 GB ] Львица / Rogue [2020 HDRip] DUB bober100 Скачать
1 | 0
Фильмы [HD 720p, 1080p] (Хороший звук DUB, MVO) [ 7.44 GB ] Львица / Rogue [2020 BDRip 720p] DUB bober100 Скачать
1 | 0
Фильмы [HD 720p, 1080p] (Хороший звук DUB, MVO) [ 13.2 GB ] Львица / Rogue [2020 BDRip 1080p] DUB bober100 Скачать
2 | 0
Фильмы 2019-2020 [DVDrip, WEB-DLRip, HDrip] (DUB, MVO) [ 1.46 GB ] Львица / Rogue [2020 BDRip] MVO [HDRezka Studio] Twi7ter Скачать
9 | 0
Фильмы 2019-2020 [DVDrip, WEB-DLRip, HDrip] (DUB, MVO) [ 1.45 GB ] Львица / Rogue [2020 BDRip-AVC] MVO [HDRezka Studio] - ExKinoRay Enigma2010 Скачать
2 | 1
Фильмы 2019-2020 [DVDrip, WEB-DLRip, HDrip] (DUB, MVO) [ 1.46 GB ] Львица / Rogue [2020 BDRip-AVC] MVO [HDRezka Studio] bober100 Скачать
1 | 0

28-11-2019 20:33  

Отключить всю рекламу на сайте

    Дорогой пользователь! Огромная просьба, поблагодарите релизера, оцените раздачу и оставьте свои комментарий, если Вы скачали Львица через торрент бесплатно! Внесите свою лепту в развитие PiratBit!
    Комментировать посты могут только пользователи прошедшие не сложную регистрацию
    Показать сообщения:    

    Львица через торрент
    Скачать бесплатно Львица
    Львица скачать торрент
    Львица смотреть онлайн
    Cкачать фильм Львица бесплатно
    Львица скачать торрент в хорошем качестве
    Львица смотреть онлайн бесплатно в хорошем качестве


    Вы не можете начинать темы
    Вы не можете отвечать на сообщения
    Вы не можете редактировать свои сообщения
    Вы не можете удалять свои сообщения
    Вы не можете голосовать в опросах
    Вы не можете прикреплять файлы к сообщениям
    Вы можете скачивать файлы