2 сезон

iTunes

WEBRip

1

2 сезон

iTunes

1 сезон

1 сезон

RePack

30

Ultimate

ВАЖНО

ИГРА 18+

pack

RePack

MK11
pack

Легкие деньги

RePack

jed

RePack

fifa19

RePack

RDR2

RePack

NEED FOR SPEED™ PAYBACK

4 сезон

9 сезон

Бесстыжие 9 сезон

Все сериалы

все сериалы на PB.wtf

RePack

FAR CRY 5

Anonymous, доброй ночи, мы не успеваем собрать деньги на оплату серверов за февраль, помогите нам пожалуйста в это трудное время. В качестве благодарности мы отключим Вам всю рекламу на сайте (укажите свой ник в строку Ваше имя)!

×
  
Magnet ссылка

Тесла / Tesla (Майкл Алмерейда) [2020, Драма, биография, WEB-DL 1080p] [Ukr DUB] piratbit.org

Тесла через торрент piratbit.org

Размер: 6.98 GB | Добавлен: 5 мес. 21 д. назад | Торрент скачан:29 раз
Скачать  

10-09-2020 15:19 Тесла Скачать торрент  


Тесла / Tesla
Год выхода: 2020
Жанр: Драма, биография
Страна: США
Студия: Passage Pictures (II), RNG Entertainment, Campbell Grobman Films
Продолжительность: 01:42:18
Перевод: Украинский (дублированный)
Субтитры: английские

Режиссер: Майкл Алмерейда

В ролях: Итэн Хоук, Кайл МакЛахлан, Ив Хьюсон, Джим Гэффиган, Эбон Мосс-Бакрак, Ханна Гросс, Джош Хэмилтон, Джеймс Урбаняк, Иэн Литгоу, Лоис Смит
Описание: Каждый день мы пользуемся его творениями, но даже и не подозреваем, какие провидения лежат в их основе. Никола Тесла прожил удивительную жизнь, полную озарений, феноменальных идей, побед и разочарований. Именно он изобрёл ХХ век.

rating

Качество: BDRip 1080p
Формат: MKV
Видео: MPEG-4 AVC, 8922 кб/с, 1920x1040, 23.976 кадр/с
Аудио #1: AC3, 48 Гц, 192 Кбит/сек, 2 ch - Ukr DUB
Аудио #2: Английский, E-AC3, 48 Гц, 640 Кбит/сек, 6 ch
скриншот   скриншот   скриншот  
General
Complete name : Tesla (2020) WEB-DL 1080p [ukr, eng] [Hortom].mkv
Format : Matroska
Format version : Version 4
File size : 6.98 GiB
Duration : 1 h 42 min
Overall bit rate : 9 757 kb/s
Movie name : Тесла / Tesla (2020)
Encoded date : UTC 2020-09-10 08:27:38
Writing application : mkvmerge v30.1.0 ('Forever And More') 64-bit
Writing library : libebml v1.3.6 + libmatroska v1.4.9
Cover : Yes
Attachments : cover.jpg

Video
ID : 1
Format : AVC
Format/Info : Advanced Video Codec
Format profile : High@L4
Format settings : CABAC / 4 Ref Frames
Format settings, CABAC : Yes
Format settings, RefFrames : 4 frames
Codec ID : V_MPEG4/ISO/AVC
Duration : 1 h 42 min
Bit rate mode : Constant
Bit rate : 8 922 kb/s
Nominal bit rate : 10 000 kb/s
Width : 1 920 pixels
Height : 1 040 pixels
Display aspect ratio : 1.85:1
Frame rate mode : Constant
Frame rate : 23.976 (24000/1001) FPS
Color space : YUV
Chroma subsampling : 4:2:0
Bit depth : 8 bits
Scan type : Progressive
Bits/(Pixel*Frame) : 0.186
Stream size : 6.39 GiB (91%)
Default : Yes
Forced : No
Color range : Limited
Color primaries : BT.709
Transfer characteristics : BT.709
Matrix coefficients : BT.709

Audio #1
ID : 2
Format : AC-3
Format/Info : Audio Coding 3
Commercial name : Dolby Digital
Codec ID : A_AC3
Duration : 1 h 42 min
Bit rate mode : Constant
Bit rate : 192 kb/s
Channel(s) : 2 channels
Channel layout : L R
Sampling rate : 48.0 kHz
Frame rate : 31.250 FPS (1536 SPF)
Bit depth : 16 bits
Compression mode : Lossy
Stream size : 141 MiB (2%)
Title : AC3 2.0 | 192
Language : Ukrainian
Service kind : Complete Main
Default : Yes
Forced : No

Audio #2
ID : 3
Format : E-AC-3
Format/Info : Enhanced AC-3
Commercial name : Dolby Digital Plus
Codec ID : A_EAC3
Duration : 1 h 42 min
Bit rate mode : Constant
Bit rate : 640 kb/s
Channel(s) : 6 channels
Channel layout : L R C LFE Ls Rs
Sampling rate : 48.0 kHz
Frame rate : 31.250 FPS (1536 SPF)
Compression mode : Lossy
Stream size : 469 MiB (7%)
Title : e-AC3 5.1 | 640
Language : English
Service kind : Complete Main
Default : No
Forced : No

Text #1
ID : 4
Format : UTF-8
Codec ID : S_TEXT/UTF8
Codec ID/Info : UTF-8 Plain Text
Duration : 1 h 34 min
Bit rate : 58 b/s
Count of elements : 1342
Stream size : 40.7 KiB (0%)
Title : Full
Language : English
Default : No
Forced : No

Text #2
ID : 5
Format : UTF-8
Codec ID : S_TEXT/UTF8
Codec ID/Info : UTF-8 Plain Text
Duration : 1 h 36 min
Bit rate : 61 b/s
Count of elements : 1458
Stream size : 43.1 KiB (0%)
Title : SDH
Language : English
Default : No
Forced : No
piratbit.org



Скачать Тесла через торрент https://i112.fastpic.ru/big/2020/0910/ce/d67896db5e9dd5cb1875ced43601ffce.jpg Скачать фильм Тесла через торрент бесплантно в хорошем качестве Описание: Каждый день мы пользуемся его творениями, но даже и не подозреваем, какие провидения лежат в их основе. Никола Тесла прожил ... 10 10 1
Торрент: Зарегистрирован [2020-09-10 15:19] · скачан: 29 раз
Статус: √ проверено
Размер: 6.98 GB
Как cкачать? Как скачать Тесла через торрент | UTorrent

% Раздел Тема Автор DL S | L
Фильмы 2019-2020 [DVDrip, WEB-DLRip, HDrip] (DUB, MVO) [ 1.41 GB ] Тесла / Tesla [2020 биография BDRip] - Twi7ter Скачать
10 | 0
Фильмы [HD 720p, 1080p] (Хороший звук DUB, MVO) [ 5.55 GB ] Тесла / Tesla [2020 биография BDRip 720p] bober100 Скачать
1 | 0
Фильмы (Blu-ray, BD-Remux, HDDVD) [ 26.11 GB ] Тесла / Tesla [2020 биография BD Remux 1080p] bober100 Скачать
2 | 0
Фильмы 2019-2020 [DVDrip, WEB-DLRip, HDrip] (DUB, MVO) [ 1.41 GB ] Тесла / Tesla [2020 биография BDRip] bober100 Скачать
3 | 0
Фильмы [HD 720p, 1080p] (Хороший звук DUB, MVO) [ 10.6 GB ] Тесла / Tesla [2020 биография BDRip 1080p] bober100 Скачать
1 | 0
Фильмы (WEB-DL 720p, 1080p) [ 7.12 GB ] Тесла / Tesla [2020 биография WEB-DL 1080p] bober100 Скачать
1 | 0
Фильмы 2019-2020 [DVDrip, WEB-DLRip, HDrip] (DUB, MVO) [ 2.23 GB ] Тесла / Tesla [2020 биография WEB-DLRip-AVC] [MVO] [MUZOBOZ] от wolf1245 & MediaBit Lithuania Скачать
2 | 0


Последний раз редактировалось: killermax2013 (2020-10-18 15:15), всего редактировалось 1 раз

28-11-2019 20:33  

Отключить всю рекламу на сайте

10-09-2020 15:45 Тесла Скачать торрент  

фильм хороший смотреть да! только сделали бы сериал так лучше было бы ..и поинтереснее такие великие люди а о них короткие фильмыpiratbit.org



    Дорогой пользователь! Огромная просьба, поблагодарите релизера, оцените раздачу и оставьте свои комментарий, если Вы скачали Тесла через торрент бесплатно! Внесите свою лепту в развитие PiratBit!
    Комментировать посты могут только пользователи прошедшие не сложную регистрацию
    Показать сообщения:    

    Тесла через торрент
    Скачать бесплатно Тесла
    Тесла скачать торрент
    Тесла смотреть онлайн
    Cкачать фильм Тесла бесплатно
    Тесла скачать торрент в хорошем качестве
    Тесла смотреть онлайн бесплатно в хорошем качестве


    Вы не можете начинать темы
    Вы не можете отвечать на сообщения
    Вы не можете редактировать свои сообщения
    Вы не можете удалять свои сообщения
    Вы не можете голосовать в опросах
    Вы не можете прикреплять файлы к сообщениям
    Вы можете скачивать файлы