Ссылка на приватное зеркало нашего сайта всего за 1$. Внимание количество ограничено!!!

2 сезон

iTunes

1 сезон

1

2 сезон

2 сезон

iTunes

1 сезон

RePack

30

Ultimate

ВАЖНО

ИГРА 18+

pack

RePack

MK11
pack

Забери бонус

RePack

jed

!!Акция!!

Alien_Rage

RePack

fifa19

RePack

Assassins Creed: Odyssey

RePack

NEED FOR SPEED™ PAYBACK

4 сезон

9 сезон

Бесстыжие 9 сезон

Все сериалы

все сериалы на PB.wtf

RePack

FAR CRY 5
  

Клетка духа: Воплощение / Ling Long: Incarnation / Сезон 1-2 / Серии 1- 19 из 19 [2019 г., Экшен, фантастика, ужасы, демоны, драма, триллер, HDTVRip 720p-1080p] [MVO] (Анистар) piratbit.org

Клетка духа: Воплощение через торрент piratbit.org

Раздают: 1 [ 0 KB/s ]
Размер: 8.44 GB | Добавлен: 1 мес. 21 д. назад | Торрент скачан:35 раз
Скачать  

12-09-2020 11:52 Клетка духа: Воплощение Скачать торрент  

Клетка духа: Воплощение / Ling Long: Incarnation

Год выпуска: 2019
Страна: Китай
Жанр: Экшен, фантастика, ужасы, демоны, драма, триллер
Продолжительность: 1 сезон ~00:30:00 2 сезон ~00:15:00
Перевод: Любительский (двухголосый)
Субтитры: Отсутствуют

В ролях: Озучивал Xelenum + Veda или Sati Akura (Анистар)

Описание: Не столь отдалённое будущее. Человечество страдает от перенаселения и решается исследовать космос в поисках нового дома. Однако эти грандиозные планы были нарушены крупномасштабной катастрофой, вызванной смещением Луны с орбиты. Земля буквально трещит по швам, переживая одно землетрясение за другим, и это продолжается десятилетиями.
Человечество стёрто с лица Земли. Когда, наконец, всё прекращается, те немногие, кому чудом удалось выжить, оказываются в совершенно новом непривычном, но вроде бы знакомом мире. Смогут ли люди, однажды бывшие хозяевами мира, сохранить своё доминирующее положение?

Доп. информация:
1 сезон 1-7 по серию, 2 сезон 8-19
1-6 серию 1280p, с 7 серии 1920p
1 по 6 серии одноголосый Xelenum, с 7 серии +Veda или Sati Akura
Всю рекламу удалил
Кто сомневается в качестве китайского аниме, смотрите сэмпл

Качество: HDTVRip 720p
Формат: MKV
Видео: MPEG4 Video (H264) 1280x720 23.976fps 2 200kbps в MKV с 8 серии MPEG4 Video (H264) 1920x1080 40fps 3 341kbps в MP4
Аудио#1: RUS AAC 44100Hz stereo 125 Кбит
Релиз от: Анистар
скриншот   скриншот   скриншот  





Общее
Полное имя : D:\Раздачи\Ling Long Incarnation Клетка духа Воплощение\[AniStar.org] Ling Long Incarnation Part 2 -08 [1080p].mp4
Формат : MPEG-4
Профиль формата : Base Media
Идентификатор кодека : isom (isom/mp42)
Размер файла : 401 Мбайт
Продолжительность : 15 м. 30 с.
Режим общего битрейта : Переменный
Общий поток : 3 618 Кбит/сек
Дата кодирования : UTC 2020-09-11 19:04:19
Дата пометки : UTC 2020-09-11 19:04:19
Программа кодирования : vlc 3.0.11 stream output
Примечание : QuickTime 6.0 or greater

Видео
Идентификатор : 1
Формат : AVC
Формат/Информация : Advanced Video Codec
Профиль формата : High@L4.2
Настройки формата : CABAC / 4 Ref Frames
Параметр CABAC формата : Да
Параметр RefFrames формата : 4 кадра
Идентификатор кодека : avc1
Идентификатор кодека/Информация : Advanced Video Coding
Продолжительность : 15 м. 30 с.
Продолжительность оригинала : 15 м. 29 с.
Битрейт : 3 341 Кбит/сек
Ширина : 1 920 пикселей
Высота : 1 080 пикселей
Соотношение сторон : 16:9
Режим частоты кадров : Постоянный
Частота кадров : 40,000 кадров/сек
Цветовое пространство : YUV
Субдискретизация насыщенности : 4:2:0
Битовая глубина : 8 бит
Тип развёртки : Прогрессивная
Бит/(Пиксели*Кадры) : 0.040
Размер потока : 370 Мбайт (92%)
Размер потока оригинала : 386 Мбайт (96%)
Библиотека кодирования : x264 core 146
Настройки программы : cabac=1 / ref=3 / deblock=1:0:0 / analyse=0x3:0x113 / me=hex / subme=7 / psy=1 / psy_rd=1.00:0.00 / mixed_ref=1 / me_range=16 / chroma_me=1 / trellis=1 / 8x8dct=1 / cqm=0 / deadzone=21,11 / fast_pskip=1 / chroma_qp_offset=-2 / threads=36 / lookahead_threads=6 / sliced_threads=0 / nr=0 / decimate=1 / interlaced=0 / bluray_compat=0 / constrained_intra=0 / bframes=3 / b_pyramid=2 / b_adapt=1 / b_bias=0 / direct=1 / weightb=1 / open_gop=0 / weightp=2 / keyint=300 / keyint_min=30 / scenecut=40 / intra_refresh=0 / rc_lookahead=40 / rc=crf / mbtree=1 / crf=23.0 / qcomp=0.60 / qpmin=0 / qpmax=69 / qpstep=4 / ip_ratio=1.40 / aq=1:1.00
Язык : English
Дата кодирования : UTC 2020-09-11 19:04:19
Дата пометки : UTC 2020-09-11 19:04:19
mdhd_Duration : 930023
Codec configuration box : avcC

Аудио
Идентификатор : 2
Формат : AAC LC
Формат/Информация : Advanced Audio Codec Low Complexity
Идентификатор кодека : mp4a-40-2
Продолжительность : 15 м. 29 с.
Продолжительность оригинала : 15 м. 29 с.
Вид битрейта : Переменный
Битрейт : 125 Кбит/сек
Каналы : 2 канала
Channel layout : L R
Частота : 44,1 КГц
Частота кадров : 43,066 кадра/сек (1024 SPF)
Метод сжатия : С потерями
Размер потока : 13,8 Мбайт (3%)
Размер потока оригинала : 13,8 Мбайт (3%)
Язык : English
Дата кодирования : UTC 2020-09-11 19:04:19
Дата пометки : UTC 2020-09-11 19:04:19
mdhd_Duration : 929960

piratbit.org



Скачать Клетка духа: Воплощение через торрент https://funkyimg.com/i/37kyf.jpg Скачать фильм Клетка духа: Воплощение через торрент бесплантно в хорошем качестве Описание: Не столь отдалённое будущее. Человечество страдает от перенаселения и решается исследовать космос в поисках нового дома. Однако ... 10 10 3
× Info от релизера! Добавил 18-19 серию, конец!
Торрент: Зарегистрирован [2020-10-09 18:00] · скачан: 35 раз
Статус: √ проверено
Размер: 8.44 GB
Как cкачать? Как скачать Клетка духа: Воплощение через торрент | qTorrent



Последний раз редактировалось: GuruBrain (2020-10-09 18:02), всего редактировалось 7 раз(а)

28-11-2019 20:33  

Отключить всю рекламу на сайте

12-09-2020 12:53 Клетка духа: Воплощение Скачать торрент  

граждане скачавшие! че, как мульт?piratbit.org



12-09-2020 17:01 Клетка духа: Воплощение Скачать торрент  

Посмотрим, посмотрим 0)piratbit.org



12-09-2020 17:11 Клетка духа: Воплощение Скачать торрент  

ПО моему не все поняли , это не законченный второй сезон, след. 2 серии добавлю через две недели 25.09 и потом опять через 2 недели,
скорее всего 3 раза по 2 серии, но это имхо.. нигде нету точной инфы, я даже не нашёл кто режисёрpiratbit.org



03-10-2020 16:23 Клетка духа: Воплощение Скачать торрент  

Раздачи нет, народ!!! piratbit.org



04-10-2020 16:19 Клетка духа: Воплощение Скачать торрент  

ДЭСС писал(а):

Раздачи нет, народ!!!

до этого ни разу не выключал компpiratbit.org



11-10-2020 13:07 Клетка духа: Воплощение Скачать торрент  

Топик был перенесен из форума Оформление раздач (Наши, Зарубежные Сериалы) в форум Аниме [HD 720p, 1080p]


killermax2013piratbit.org



18-10-2020 20:35 Клетка духа: Воплощение Скачать торрент  

tamburetko писал(а):

граждане скачавшие! че, как мульт?

Очень даже смотрительно!piratbit.org



    Дорогой пользователь! Огромная просьба, поблагодарите релизера, оцените раздачу и оставьте свои комментарий, если Вы скачали Клетка духа: Воплощение через торрент бесплатно! Внесите свою лепту в развитие PiratBit!
    Комментировать посты могут только пользователи прошедшие не сложную регистрацию
    Показать сообщения:    

    Клетка духа: Воплощение через торрент
    Скачать бесплатно Клетка духа: Воплощение
    Клетка духа: Воплощение скачать торрент
    Клетка духа: Воплощение смотреть онлайн
    Cкачать фильм Клетка духа: Воплощение бесплатно
    Клетка духа: Воплощение скачать торрент в хорошем качестве
    Клетка духа: Воплощение смотреть онлайн бесплатно в хорошем качестве


    Вы не можете начинать темы
    Вы не можете отвечать на сообщения
    Вы не можете редактировать свои сообщения
    Вы не можете удалять свои сообщения
    Вы не можете голосовать в опросах
    Вы не можете прикреплять файлы к сообщениям
    Вы можете скачивать файлы