Ссылка на приватное зеркало нашего сайта всего за 1$. Внимание количество ограничено!!!

2 сезон

iTunes

iTunes

1

iTunes

iTunes

iTunes

WEBRip

iTunes

30
pack

Новость дня

ВАЖНО

!!Акция!!

Alien_RageХит недели

RePack

Horizon Zero Dawn

ИГРА 18+

pack

RePack

jed

!!Акция!!

Alien_Rage

RePack

fifa19

RePack

Assassins Creed: Odyssey

RePack

NEED FOR SPEED™ PAYBACK

4 сезон

9 сезон

Бесстыжие 9 сезон

Все сериалы

все сериалы на PB.wtf

RePack

FAR CRY 5
  

Чистилище / Purgatory (Ули Эдель) [1999 г., Фэнтези, вестерн, WEB-DLRip 720p / 60 FPS, Профессиональный (многоголосый)] от R.G. HD-Films piratbit.org

Чистилище через торрент piratbit.org

Раздают: 11 [ 0 KB/s ]
Размер: 3.53 GB | Добавлен: 7 д. назад | Торрент скачан:134 раза
Скачать  

14-09-2020 13:33 Чистилище Скачать торрент  

Чистилище / Purgatory
Год выпуска: 1999
Страна: США
Жанр: Фэнтези, вестерн
Продолжительность: 01:34:25
Перевод: MVO (ТНТ)

Режиссер: Ули Эдель

Премьера в мире: 10 января 1999

rating

В ролях: Сэм Шепард, Эрик Робертс, Рэнди Куэйд, Петер Стормаре, Брэд Роу, Донни Уолберг, Дж. Д. Саузер, Амелия Хайнл, Шеннон Кенни, Джон Деннис Джонстон

Описание: Между небом и землей, посреди пустыни на Диком Западе находится маленький городок Тихая Гавань. Шериф здесь не носит оружия. Здесь нет тюрьмы. Здесь живут тихие мирные люди. Но присмотритесь к ним поближе, и вы сможете опознать многих из его жителей.
Дикий Билл Хикок, Док Холидэй, Джесси Джеймс, Билли-Кид. Всех их давным-давно убили. И всем им предоставили последний шанс в Чистилище. Спасти свою душу или навеки потерять ее, встретившись с Бандой Блэкджека.


Качество: WEB-DLRip 720p / 60 FPS
Формат: MKV
Видео кодек: H.264
Аудио кодек: AC3
Видео: x264, 1280 x 720 ( 16:9 ), 5158 kbps, 59,940 fps, ( 0.093 bpp)
Аудио#1: Русский, AC-3, 48.0 KHz, 2 ch, 192 Kbps MVO (ТНТ)
Релиз от:

скриншот   скриншот   скриншот   скриншот   скриншот   скриншот  Автор рипа: slaventi-69
x264 [info]: frame I:1592 Avg QP:18.80 size: 90232
x264 [info]: frame P:82062 Avg QP:19.66 size: 25193
x264 [info]: frame B:255887 Avg QP:21.92 size: 5632
x264 [info]: consecutive B-frames: 2.6% 4.2% 8.7% 10.9% 61.6% 12.0%


бщее
Уникальный идентификатор : 196346142136554555182581018129337457022 (0x93B6E436C28B08F4A67036E8D730997E)
Полное имя : F:\Purgatory.(1999).WEB-DLRip.720p.(60 Fps).mkv
Формат : Matroska
Версия формата : Version 4
Размер файла : 3,53 Гбайт
Продолжительность : 1 ч. 34 м.
Общий поток : 5354 Кбит/сек
Название фильма : Чистилище / Purgatory (1999) WEB-DLRip 720p (60 Fps)
Дата кодирования : UTC 2020-08-12 14:22:38
Программа кодирования : mkvmerge v9.7.1 ('Pandemonium') 64bit
Библиотека кодирования : libebml v1.3.4 + libmatroska v1.4.5

Видео
Идентификатор : 1
Формат : AVC
Формат/Информация : Advanced Video Codec
Профиль формата : High@L4.1
Настройки формата : CABAC / 9 Ref Frames
Параметр CABAC формата : Да
Параметр RefFrames формата : 9 кадров
Идентификатор кодека : V_MPEG4/ISO/AVC
Продолжительность : 1 ч. 34 м.
Битрейт : 5158 Кбит/сек
Ширина : 1280 пикселей
Высота : 720 пикселей
Соотношение сторон : 16:9
Режим частоты кадров : Постоянный
Частота кадров : 59,940 (59940/1000) кадров/сек
Частота кадров в оригинале : 60,000 кадров/сек
Цветовое пространство : YUV
Субдискретизация насыщенности : 4:2:0
Битовая глубина : 8 бит
Тип развёртки : Прогрессивная
Бит/(Пиксели*Кадры) : 0.093
Размер потока : 3,40 Гбайт (96%)
Заголовок : slaventi-69 ( R.G. HD-Films | 60 fps )
Библиотека кодирования : x264 core 130 r2273 b3065e6
Настройки программы : cabac=1 / ref=9 / deblock=1:-1:-1 / analyse=0x3:0x133 / me=umh / subme=9 / psy=1 / psy_rd=1.00:0.00 / mixed_ref=1 / me_range=28 / chroma_me=1 / trellis=2 / 8x8dct=1 / cqm=0 / deadzone=21,11 / fast_pskip=0 / chroma_qp_offset=-2 / threads=10 / lookahead_threads=4 / sliced_threads=0 / nr=0 / decimate=1 / interlaced=0 / bluray_compat=0 / constrained_intra=0 / bframes=5 / b_pyramid=2 / b_adapt=2 / b_bias=0 / direct=1 / weightb=1 / open_gop=0 / weightp=2 / keyint=600 / keyint_min=60 / scenecut=40 / intra_refresh=0 / rc=crf / mbtree=0 / crf=18.3 / qcomp=0.60 / qpmin=0 / qpmax=69 / qpstep=4 / ip_ratio=1.40 / pb_ratio=1.30 / aq=1:1.00
Язык : English
Default : Да
Forced : Нет

Аудио
Идентификатор : 2
Формат : AC-3
Формат/Информация : Audio Coding 3
Коммерческое название : Dolby Digital
Идентификатор кодека : A_AC3
Продолжительность : 1 ч. 34 м.
Вид битрейта : Постоянный
Битрейт : 192 Кбит/сек
Каналы : 2 канала
Channel layout : L R
Частота : 48,0 КГц
Частота кадров : 31,250 кадров/сек (1536 SPF)
Битовая глубина : 16 бит
Метод сжатия : С потерями
Размер потока : 129 Мбайт (4%)
Заголовок : MVO (ТНТ)
Язык : Russian
ServiceKind/String : Complete Main
Default : Да
Forced : Нет

Просьба к переливающим на другие сайты, в оформлении указывайте пожалуйста авторство группы R.G. HD-Films piratbit.org



Скачать Чистилище через торрент https://d.radikal.ru/d10/1903/68/00174c339951.jpg Скачать фильм Чистилище через торрент бесплантно в хорошем качестве Описание: Между небом и землей, посреди пустыни на Диком Западе находится маленький городок Тихая Гавань. Шериф здесь не носит оружия. ... 9.8 10 13
Торрент: Зарегистрирован [2020-09-14 13:33] · скачан: 134 раз
Статус: √ проверено
Размер: 3.53 GB
Как cкачать? Как скачать Чистилище через торрент | qTorrent

28-11-2019 20:33  

Отключить всю рекламу на сайте

14-09-2020 18:13 Чистилище Скачать торрент  

Большая благодарность, Вам, за фильм, уважаемый релизер!!! Смотрел на видеокассете когда-то, понравилось, хотя, если честно, то это единственный вестерн в моей коллекции. Теперь есть и в 60FPS. Спасибо за очередной подарок!!!

P.S. Фильм скачан пока 34 раза, а поблагодарили только 6, швайне...piratbit.org



14-09-2020 21:32 Чистилище Скачать торрент  

Я не качаю и благодарю по возможности этого релизера за хорошие фильмыpiratbit.org



15-09-2020 11:16 Чистилище Скачать торрент  

Skazzzzzzzzza писал(а):

Я не качаю и благодарю по возможности этого релизера за хорошие фильмы

Ну и хорошо, спасибо Вам, но я говорил о тех, кто скачал.
Скачавших уже 71, а поблагодарили только 19, швайны...piratbit.org



19-09-2020 20:49 Чистилище Скачать торрент  

Я на этот фильм наткнулся случайно, но заинтересовало.
Спасибо релизеру.piratbit.org



    Дорогой пользователь! Огромная просьба, поблагодарите релизера, оцените раздачу и оставьте свои комментарий, если Вы скачали Чистилище через торрент бесплатно! Внесите свою лепту в развитие PiratBit!
    Комментировать посты могут только пользователи прошедшие не сложную регистрацию
    Показать сообщения:    

    Чистилище через торрент
    Скачать бесплатно Чистилище
    Чистилище скачать торрент
    Чистилище смотреть онлайн
    Cкачать фильм Чистилище бесплатно
    Чистилище скачать торрент в хорошем качестве
    Чистилище смотреть онлайн бесплатно в хорошем качестве


    Вы не можете начинать темы
    Вы не можете отвечать на сообщения
    Вы не можете редактировать свои сообщения
    Вы не можете удалять свои сообщения
    Вы не можете голосовать в опросах
    Вы не можете прикреплять файлы к сообщениям
    Вы можете скачивать файлы