Marvel's Avengers Deluxe Edition (супер цена) 159р. Внимание количество ограничено!!!

2 сезон

iTunes

iTunes

1

iTunes

iTunes

iTunes

WEBRip

iTunes

30
pack

Новость дня

ВАЖНО

!!Акция!!

Alien_RageХит недели

RePack

Horizon Zero Dawn

ИГРА 18+

pack

RePack

jed

!!Акция!!

Alien_Rage

RePack

fifa19

RePack

Assassins Creed: Odyssey

RePack

NEED FOR SPEED™ PAYBACK

4 сезон

9 сезон

Бесстыжие 9 сезон

Все сериалы

все сериалы на PB.wtf

RePack

FAR CRY 5
  

Страна Лавкрафта / Lovecraft Country / Сезон: 1 / Серии: 1-5 из 10 (Дэниэл Сакхайм, Ян Деманж, Шерил Дьюнай) [2020, Ужасы, фантастика, фэнтези, триллер, WEB-DL 1080p] MVO [AlexFilm] piratbit.org

Страна Лавкрафта через торрент piratbit.org

Раздают: 2 [ 346 KB/s ] Качают: 3 [ 0 KB/s ]
Размер: 15.87 GB | Добавлен: 4 д. назад | Торрент скачан:15 раз
Скачать  

15-09-2020 17:55 Страна Лавкрафта Скачать торрент  

Страна Лавкрафта | Lovecraft Country
Год выпуска: 2020
Страна: США
Студия: Bonanza Productions, Alloy Entertainment, Warner Bros. Television
Жанр: Ужасы, фантастика, фэнтези, триллер, драма, детектив
Продолжительность: ~ 01:10:10
Перевод: Профессиональный многоголосый | AlexFilm
Субтитры: Русские (Forced, Full |«FOCS»|*, английские (SDH)
* кроме пятой серии!

Внимание: в субтитрах присутствует ненормативная лексика!

Режиссер: Дэниэл Сакхайм, Ян Деманж, Шерил Дьюнай

rating скриншот  

В ролях: Джонатан Мэйджерс, Джерни Смоллетт, Кортни Б. Вэнс, Майкл Кеннет Уильямс, Чейз Браун, Онжаню Эллис, Маркус А. Гриффин мл., Эбби Ли, Вунми Моссаку, Джада Харрис

Описание: 22-летний ветеран Корейской войны Аттикус вместе с подругой детства и дядей отправляется в путешествие по Штатам на поиски отца. На пути он встретится не только с расистами, но и с настоящими монстрами.

Качество: WEB-DL 1080p
Формат: MKV

Видео: 1920x1080 (16:9), 23.976 fps, ~ 6000 Kbps
Аудио №1: AC3, 48,0 kHz, 6 ch, 384 kbps | AlexFilm
Аудио №2: AC3, 48,0 kHz, 6 ch, 640 kbps | Original
скриншот  скриншот  скриншот  скриншот  

Complete name : D:Lovecraft_Country_(s01)_AlexFilm_1080pLovecraft.Country.2020.S01E01.Sundown.1080p.AMZN.WEB-DL.DD5.1.x264-NTb_EniaHD.mkv
Format : Matroska
Format version : Version 2
File size : 4.59 GiB
Duration : 1 h 9 min
Overall bit rate : 9 439 kb/s
Encoded date : UTC 2020-09-15 16:46:04
Writing application : mkvmerge v4.9.1 ('Ich will') сборка от Jul 11 2011 23:53:15
Writing library : libebml v1.2.1 + libmatroska v1.1.1

Video
ID : 1
Format : AVC
Format/Info : Advanced Video Codec
Format profile : High@L4
Format settings : CABAC / 4 Ref Frames
Format settings, CABAC : Yes
Format settings, Reference : 4 frames
Codec ID : V_MPEG4/ISO/AVC
Duration : 1 h 9 min
Bit rate mode : Constant
Bit rate : 8 227 kb/s
Nominal bit rate : 10 000 kb/s
Width : 1 920 pixels
Height : 1 080 pixels
Display aspect ratio : 16:9
Frame rate mode : Constant
Frame rate : 23.976 (24000/1001) FPS
Color space : YUV
Chroma subsampling : 4:2:0
Bit depth : 8 bits
Scan type : Progressive
Bits/(Pixel*Frame) : 0.165
Stream size : 4.00 GiB (87%)
Title : Release by EniaHD
Default : Yes
Forced : No
Color range : Limited
Color primaries : BT.709
Transfer characteristics : BT.709
Matrix coefficients : BT.709

Audio #1
ID : 2
Format : AC-3
Format/Info : Audio Coding 3
Commercial name : Dolby Digital
Codec ID : A_AC3
Duration : 1 h 9 min
Bit rate mode : Constant
Bit rate : 384 kb/s
Channel(s) : 6 channels
Channel layout : L R C LFE Ls Rs
Sampling rate : 48.0 kHz
Frame rate : 31.250 FPS (1536 SPF)
Compression mode : Lossy
Stream size : 191 MiB (4%)
Title : AlexFilm
Language : Russian
Service kind : Complete Main
Default : Yes
Forced : No

Audio #2
ID : 3
Format : AC-3
Format/Info : Audio Coding 3
Commercial name : Dolby Digital
Codec ID : A_AC3
Duration : 1 h 9 min
Bit rate mode : Constant
Bit rate : 640 kb/s
Channel(s) : 6 channels
Channel layout : L R C LFE Ls Rs
Sampling rate : 48.0 kHz
Frame rate : 31.250 FPS (1536 SPF)
Compression mode : Lossy
Stream size : 319 MiB (7%)
Language : English
Service kind : Complete Main
Default : No
Forced : No

Text #1
ID : 4
Format : UTF-8
Codec ID : S_TEXT/UTF8
Codec ID/Info : UTF-8 Plain Text
Title : Forced
Language : Russian
Default : Yes
Forced : No

Text #2
ID : 5
Format : UTF-8
Codec ID : S_TEXT/UTF8
Codec ID/Info : UTF-8 Plain Text
Title : Full |FOCS|
Language : Russian
Default : No
Forced : No

Text #3
ID : 6
Format : UTF-8
Codec ID : S_TEXT/UTF8
Codec ID/Info : UTF-8 Plain Text
Title : SDH
Language : English
Default : No
Forced : No

Внимание! Раздача ведётся путём добавления новых серий; при каждом добавлении создаётся новый торрент.
Чтобы начать докачку новой серии, пользователям необходимо сделать следующее:
1. Остановить скачивание;
2. Удалить старый торрент у себя из клиента (старые серии удалять не надо);
3. Скачать новый торрент и запустить его у себя в клиенте вместо старого, при этом указать клиенту путь в старую папку куда и должно происходить скачивание новых серий. Ваш клиент при этом должен произвести хеширование (проверку) старой папки и будет докачивать только те серии, которых у вас ещё нет. Старые серии при этом не удаляются, а продолжают раздаваться! Eсли вы уже удалили старые серии, то предотвратить повторную закачку старых серий можно, отжав галочку в соответствующих местах при запуске нового торрента.

piratbit.org



Скачать Страна Лавкрафта через торрент https://d.radikal.ru/d08/2009/24/1e1b942231ea.png Скачать фильм Страна Лавкрафта через торрент бесплантно в хорошем качестве Описание: 22-летний ветеран Корейской войны Аттикус вместе с подругой детства и дядей отправляется в путешествие по Штатам на поиски отца. ... 10 10 5
Торрент: Зарегистрирован [2020-09-15 17:55] · скачан: 15 раз
Статус: √ проверено
Размер: 15.87 GB
Как cкачать? Как скачать Страна Лавкрафта через торрент | qTorrent

% Раздел Тема Автор DL S | L
Зарубежные сериалы [ 15.87 GB ] Страна Лавкрафта / Lovecraft Country / Сезон: 1 / Серии: 1-5 из 10 [2020 WEB-DL 1080p] MVO [NewStudio] bober100 Скачать
9 | 1
Зарубежные сериалы [ 16.42 GB ] Страна Лавкрафта / Lovecraft Country / Сезон: 1 / Серии: 1-5 из 10 [2020 WEB-DL 1080p] [MVO] killermax2013 Скачать
3 | 7
Зарубежные сериалы [ 11.03 GB ] Страна Лавкрафта / Lovecraft Country / Сезон: 1 / Серии: 1-5 из 10 [2020 WEB-DL 720p] 4x[MVO] killermax2013 Скачать
4 | 2

28-11-2019 20:33  

Отключить всю рекламу на сайте

15-09-2020 20:14 Страна Лавкрафта Скачать торрент  

тупое тупого говна, история про дебила ниггера скучно и отвратительно, ничего общего с расистом лавкрафтом, который в гробу перевернулся бы если бы узнал что вдохнавляясь его рассказами какие-то дегенераты сняли это нетуpiratbit.org



    Дорогой пользователь! Огромная просьба, поблагодарите релизера, оцените раздачу и оставьте свои комментарий, если Вы скачали Страна Лавкрафта через торрент бесплатно! Внесите свою лепту в развитие PiratBit!
    Комментировать посты могут только пользователи прошедшие не сложную регистрацию
    Показать сообщения:    

    Страна Лавкрафта через торрент
    Скачать бесплатно Страна Лавкрафта
    Страна Лавкрафта скачать торрент
    Страна Лавкрафта смотреть онлайн
    Cкачать фильм Страна Лавкрафта бесплатно
    Страна Лавкрафта скачать торрент в хорошем качестве
    Страна Лавкрафта смотреть онлайн бесплатно в хорошем качестве


    Вы не можете начинать темы
    Вы не можете отвечать на сообщения
    Вы не можете редактировать свои сообщения
    Вы не можете удалять свои сообщения
    Вы не можете голосовать в опросах
    Вы не можете прикреплять файлы к сообщениям
    Вы можете скачивать файлы