Ссылка на приватное зеркало нашего сайта всего за 1$. Внимание количество ограничено!!!

2 сезон

iTunes

iTunes

1

iTunes

iTunes

iTunes

WEBRip

iTunes

30
pack

Вам бонус

ВАЖНО

!!Акция!!

Alien_RageХит недели

RePack

Horizon Zero Dawn

ИГРА 18+

pack

RePack

jed

!!Акция!!

Alien_Rage

RePack

fifa19

RePack

Assassins Creed: Odyssey

RePack

NEED FOR SPEED™ PAYBACK

4 сезон

9 сезон

Бесстыжие 9 сезон

Все сериалы

все сериалы на PB.wtf

RePack

FAR CRY 5
  

Третий день / The Third Day / Сезон: 1 / Серии: 1- из 6 (Филиппа Лоуторп, Марк Манден) [2020, Драма, детектив, WEB-DLRip] [MVO] (HDRezka Studio) piratbit.org

Третий день через торрент piratbit.org

Размер: 1.23 GB | Добавлен: 12 д. назад | Торрент скачан:17 раз
Скачать  

16-09-2020 11:57 Третий день Скачать торрент  

Третий день | The Third Day
«Столкнуться с неизбежным»
Год выпуска: 2020
Страна: Великобритания, США
Канал: HBO
Жанр: Драма, детектив
Продолжительность: ~ 01:00:00
Перевод: Профессиональный (многоголосый закадровый) | HDRezka Studio
Режиссёр: Филиппа Лоуторп, Марк Манден
В ролях: Джуд Лоу, Наоми Харрис, Кэтрин Уотерстон, Пэдди Консидайн, Эмили Уотсон, Марк Льюис Джонс, Джо Блейкмор, Амер Чадха-Патель, Фрейя Аллан, Бьорье Люндберг
Описание: События разворачиваются вокруг мужчины и женщины, попавших на таинственный остров в разное время года. В центре сюжета первой истории окажется Сэм — мрачный мужчина, который прибывает на загадочный остров в летний период. Вскоре после приезда он обнаруживает группу местных жителей, одержимых желанием любой ценой сохранить древние островные традиции. Действие второй истории развернется вокруг Хелен — волевой и упрямой женщины, оказавшейся на острове зимой. Ее приезд становится причиной ожесточенных баталий, которые приводят к кардинальным переменам в дальнейшей судьбе острова и его обитателей...

rating

Качество: WEB-DLRip
Формат: AVI
Видео: XviD, 704x352 (2,000), 23.976 кадров/сек, ~2200 Кбит/сек
Аудио Rus: AC3, 48,0 kHz, 6 ch, 384 Кбит/сек
Аудио Eng: AC3, 48,0 kHz, 6 ch, 384 Кбит/сек
Субтитры: Русские (Forced, Full), английские
Реклама: Отсутствует
01. Friday - The Father

Общее
Полное имя : D:\The Third Day (Season 1) WEB-DLRip\The.Third.Day.S01E01.WEB-DLRip.RGzsRutracker.[Wentworth_Miller].avi
Формат : AVI
Формат/Информация : Audio Video Interleave
Размер файла : 1,23 Гбайт
Продолжительность : 58 м. 50 с.
Общий поток : 2 982 Кбит/сек
Программа кодирования : VirtualDubMod 1.5.10.3 | www.virtualdub-fr.org || (build 2550/release)
Библиотека кодирования : VirtualDubMod build 2550/release

Видео
Идентификатор : 0
Формат : MPEG-4 Visual
Профиль формата : Advanced Simple@L5
Настройки формата : BVOP1
Параметр BVOP формата : 1
Параметр QPel формата : Нет
Параметр GMC формата : Без точки перехода
Параметр матрицы формата : Default (H.263)
Идентификатор кодека : XVID
Идентификатор кодека/Подсказка : XviD
Продолжительность : 58 м. 50 с.
Битрейт : 2 200 Кбит/сек
Ширина : 704 пикселя
Высота : 352 пикселя
Соотношение сторон : 2,000
Частота кадров : 23,976 (24000/1001) кадра/сек
Цветовое пространство : YUV
Субдискретизация насыщенности : 4:2:0
Битовая глубина : 8 бит
Тип развёртки : Прогрессивная
Метод сжатия : С потерями
Бит/(Пиксели*Кадры) : 0.370
Размер потока : 926 Мбайт (74%)
Библиотека кодирования : XviD 69

Аудио #1
Идентификатор : 1
Формат : AC-3
Формат/Информация : Audio Coding 3
Коммерческое название : Dolby Digital
Идентификатор кодека : 2000
Продолжительность : 58 м. 50 с.
Вид битрейта : Постоянный
Битрейт : 384 Кбит/сек
Каналы : 6 каналов
Channel layout : L R C LFE Ls Rs
Частота : 48,0 КГц
Частота кадров : 31,250 кадров/сек (1536 SPF)
Метод сжатия : С потерями
Размер потока : 162 Мбайт (13%)
Выравнивание : Разделение по промежуткам
Продолжительность промежутка : 42 мс. (1,00 видеокадр)
Время предзагрузки промежутка : 500 мс.
Service kind : Complete Main

Аудио #2
Идентификатор : 2
Формат : AC-3
Формат/Информация : Audio Coding 3
Коммерческое название : Dolby Digital
Идентификатор кодека : 2000
Продолжительность : 58 м. 50 с.
Вид битрейта : Постоянный
Битрейт : 384 Кбит/сек
Каналы : 6 каналов
Channel layout : L R C LFE Ls Rs
Частота : 48,0 КГц
Частота кадров : 31,250 кадров/сек (1536 SPF)
Метод сжатия : С потерями
Размер потока : 162 Мбайт (13%)
Выравнивание : Разделение по промежуткам
Продолжительность промежутка : 42 мс. (1,00 видеокадр)
Время предзагрузки промежутка : 500 мс.
Service kind : Complete Main

скриншот  скриншот  скриншот  

Внимание! Раздача ведётся путём добавления новых серий; при каждом добавлении создаётся новый торрент. Чтобы начать докачку новой серии, пользователям необходимо сделать следующее:
(1) остановить скачивание,
(2) удалить старый торрент у себя из клиента (старые серии удалять не надо),
(3) скачать новый торрент и запустить его у себя в клиенте вместо старого, при этом указать клиенту путь в старую папку куда и должно происходить скачивание новых серий.

Ваш клиент при этом должен произвести хеширование (проверку) старой папки (если не производит сам - помогите ему сделать это), и будет докачивать только те серии которых у вас ещё нет. Старые серии при этом не удаляются, а продолжают раздаваться!

Eсли вы уже удалили старые серии, то предотвратить повторную закачку старых серий можно, отжав галочку в соответствующих местах при запуске нового торрента. По возможности, желательно не удалять старые серии как можно дольше чтобы релизёр не столько продолжал раздавать старые серии, а смог сконцентрироваться на новых.

piratbit.org



Скачать Третий день через торрент https://i112.fastpic.ru/big/2020/0916/63/da1cf2a0a5f6b2948e036a0f66dd7863.jpeg Скачать фильм Третий день через торрент бесплантно в хорошем качестве Описание: События разворачиваются вокруг мужчины и женщины, попавших на таинственный остров в разное время года. В центре сюжета первой ... 10 10 1
Торрент: Зарегистрирован [2020-09-16 11:57] · скачан: 17 раз
Статус: √ проверено
Размер: 1.23 GB
Как cкачать? Как скачать Третий день через торрент | qTorrent

% Раздел Тема Автор DL S | L
Зарубежные сериалы [ 3.7 GB ] Третий день / The Third Day / Сезон: 1 / Серии: 1- из 6 [2020 WEB-DL 1080p] MVO [Jaskier] bober100 Скачать
2 | 0
Зарубежные сериалы [ 703 MB ] Третий день / The Third Day / Сезон: 1 / Серии: 1- из 6 [2020 WEB-DLRip] MVO [Jaskier] bober100 Скачать
1 | 0
Зарубежные сериалы [ 841 MB ] Третий день / The Third Day / Сезон: 1 / Серии: 1- из 6 [2020 WEB-DLRip] MVO [AlexFilm] bober100 Скачать
3 | 0
Зарубежные сериалы [ 1.5 GB ] Третий день / The Third Day / Сезон: 1 / Серии: 1- из 6 [2020 WEB-DL 720p] 2xMVO [AlexFilm Novamedia / Amedia] bober100 Скачать
1 | 0
Зарубежные сериалы [ 3.86 GB ] Третий день / The Third Day / Сезон: 1 / Серии: 1- из 6 [2020 WEB-DL 1080p] MVO [AlexFilm Novamedia / Amedia] bober100 Скачать
3 | 0
Зарубежные сериалы [ 1.07 GB ] Третий день / The Third Day / Сезон: 1 / Серии: 1- из 6 [2020 WEB-DLRip] MVO [Novamedia / Amedia] bober100 Скачать
2 | 0
Зарубежные сериалы [ 4.67 GB ] Третий день / The Third Day / Сезон: 1 / Серии: 1-2 из 6 [2020 HDTV 1080i] [MVO] killermax2013 Скачать
3 | 0

28-11-2019 20:33  

Отключить всю рекламу на сайте

    Дорогой пользователь! Огромная просьба, поблагодарите релизера, оцените раздачу и оставьте свои комментарий, если Вы скачали Третий день через торрент бесплатно! Внесите свою лепту в развитие PiratBit!
    Комментировать посты могут только пользователи прошедшие не сложную регистрацию
    Показать сообщения:    

    Третий день через торрент
    Скачать бесплатно Третий день
    Третий день скачать торрент
    Третий день смотреть онлайн
    Cкачать фильм Третий день бесплатно
    Третий день скачать торрент в хорошем качестве
    Третий день смотреть онлайн бесплатно в хорошем качестве


    Вы не можете начинать темы
    Вы не можете отвечать на сообщения
    Вы не можете редактировать свои сообщения
    Вы не можете удалять свои сообщения
    Вы не можете голосовать в опросах
    Вы не можете прикреплять файлы к сообщениям
    Вы можете скачивать файлы