2 сезон

iTunes

WEBRip

1

2 сезон

iTunes

1 сезон

1 сезон

RePack

30

Новинка

ВАЖНО

ИГРА 18+

pack

RePack

MK11
pack

Легкие деньги

RePack

jed

RePack

fifa19

RePack

RDR2

RePack

NEED FOR SPEED™ PAYBACK

4 сезон

9 сезон

Бесстыжие 9 сезон

Все сериалы

все сериалы на PB.wtf

RePack

FAR CRY 5

Anonymous, доброе утро, мы не успеваем собрать деньги на оплату серверов за февраль, помогите нам пожалуйста в это трудное время. В качестве благодарности мы отключим Вам всю рекламу на сайте (укажите свой ник в строку Ваше имя)!

×
  
Magnet ссылка

Пацаны / The Boys / Сезон 2 / Серии 1-8 из 8 (Филип Сгриккиа, Дэниэл Эттиэс, Дженнифер Фанг) [2020, фантастика, боевик, комедия, криминал, WEBRip-AVC] 3x[Ukr MVO] (HDrezka Studio, студия Цікава ідея, Dzuski) piratbit.org

Пацаны через торрент piratbit.org

Размер: 7.93 GB | Добавлен: 4 мес. 25 д. назад | Торрент скачан:15 раз
Скачать  

17-09-2020 11:23 Пацаны Скачать торрент  

Пацаны / Хлопаки / The Boys Год выпуска: 2020
Страна: США
Жанр: фантастика, боевик, комедия, криминал
Продолжительность: ~01:00:00
Перевод 1: Украинский (профессиональный, многоголосный) HDrezka Studio
Перевод 2: Украинский (профессиональный, многоголосный) [студия Цікава ідея]
Перевод 3: Украинский (многоголосный) Dzuski
Субтитры: Украинские (forced, full), английские

Режиссеры: Филип Сгриккиа, Дэниэл Эттиэс, Дженнифер Фанг

В ролях: Карл Урбан, Доминик МакЭллигот, Эрин Мориарти, Элизабет Шу, Энтони Старр, Дженнифер Эспозито, Саймон Пегг, Шантель Ван Сантен, Хэйли Джоэл Осмент, Чейс Кроуфорд, Нэйтан Митчелл, Джек Куэйд, Джесси Ашер, Билли Зейн, Джим Бивер, Лас Алонсо, жанкарло Эспозито, Джимми Фэллон, Тара Рид, Сет Роген и др.

Описание: Действие сериала разворачивается в мире, где существуют супергерои. Именно они являются настоящими звездами. Их все знают и обожают. Но за идеальным фасадом скрывается гораздо более мрачный мир наркотиков и секса, а большинство героев — в жизни не самые приятные люди. Для контроля за супергероями ЦРУ создает специальный отряд, неофициально известный как «Пацаны», суровые члены которого всегда готовы поставить зазнавшегося героя на место самым жестоким способом.

rating



Качество: WEBRip-AVC
Формат: MKV
Видео: 720х300, 23.976 fps, MPEG-4 AVC ~1 100 kbps avg
Аудио Ukr: 48 kHz, AC3 Dolby Digital, 2 ch, ~192.00 kbps - HDrezka Studio
Аудио Ukr: 48 kHz, AC3 Dolby Digital, 2 ch, ~192.00 kbps / 48 kHz, AC3 Dolby Digital, 6 ch, ~448.00 kbps - [студия Цікава ідея] - 1-7
Аудио Ukr: 48 kHz, AC3 Dolby Digital, 6 ch, ~384.00 kbps - Dzuski - 1-7
Аудио Eng: 48 kHz, AAC Dolby Digital, 2 ch, ~256.00 kbps
скриншот   скриншот   скриншот   скриншот  
General
Unique ID : 6634335152383528432635478544450903331 (0x4FDB9FA243EB0F5D7D1A5FF8A20DD23)
Complete name : G:\The.Boys.S02.WEB-DL.3xUkr.Eng-Hurtom\The.Boys.S02E02.WEB-DL.3xUkr.Eng-Hurtom.mkv
Format : Matroska
Format version : Version 4
File size : 896 MiB
Duration : 59 min 26 s
Overall bit rate : 2 107 kb/s
Encoded date : UTC 2020-09-13 20:08:04
Writing application : mkvmerge v50.0.0 ('Awakenings') 64-bit
Writing library : libebml v1.4.0 + libmatroska v1.6.2
Cover : Yes
Attachments : cover.jpg

Video
ID : 1
Format : AVC
Format/Info : Advanced Video Codec
Format profile : High@L3.1
Format settings : CABAC / 5 Ref Frames
Format settings, CABAC : Yes
Format settings, Reference : 5 frames
Codec ID : V_MPEG4/ISO/AVC
Duration : 59 min 25 s
Bit rate : 1 100 kb/s
Width : 720 pixels
Height : 300 pixels
Display aspect ratio : 2.40:1
Frame rate mode : Constant
Frame rate : 23.976 (24000/1001) FPS
Color space : YUV
Chroma subsampling : 4:2:0
Bit depth : 8 bits
Scan type : Progressive
Bits/(Pixel*Frame) : 0.212
Stream size : 459 MiB (51%)
Writing library : x264 core 152 r2851M ba24899
Encoding settings : cabac=1 / ref=5 / deblock=1:-1:-1 / analyse=0x3:0x113 / me=umh / subme=9 / psy=1 / psy_rd=1.00:0.15 / mixed_ref=1 / me_range=16 / chroma_me=1 / trellis=2 / 8x8dct=1 / cqm=0 / deadzone=21,11 / fast_pskip=1 / chroma_qp_offset=-3 / threads=9 / lookahead_threads=1 / sliced_threads=0 / nr=0 / decimate=1 / interlaced=0 / bluray_compat=0 / constrained_intra=0 / bframes=3 / b_pyramid=2 / b_adapt=2 / b_bias=0 / direct=3 / weightb=1 / open_gop=0 / weightp=2 / keyint=250 / keyint_min=23 / scenecut=40 / intra_refresh=0 / rc_lookahead=50 / rc=abr / mbtree=1 / bitrate=1100 / ratetol=1.0 / qcomp=0.60 / qpmin=0 / qpmax=69 / qpstep=4 / ip_ratio=1.40 / aq=1:1.00
Language : English
Default : Yes
Forced : No

Audio #1
ID : 2
Format : AC-3
Format/Info : Audio Coding 3
Commercial name : Dolby Digital
Codec ID : A_AC3
Duration : 59 min 26 s
Bit rate mode : Constant
Bit rate : 192 kb/s
Channel(s) : 2 channels
Channel layout : L R
Sampling rate : 48.0 kHz
Frame rate : 31.250 FPS (1536 SPF)
Compression mode : Lossy
Delay relative to video : -26 ms
Stream size : 81.6 MiB (9%)
Title : HDrezka Studio
Language : Ukrainian
Service kind : Complete Main
Default : Yes
Forced : Yes

Audio #2
ID : 3
Format : AC-3
Format/Info : Audio Coding 3
Commercial name : Dolby Digital
Codec ID : A_AC3
Duration : 59 min 26 s
Bit rate mode : Constant
Bit rate : 192 kb/s
Channel(s) : 2 channels
Channel layout : L R
Sampling rate : 48.0 kHz
Frame rate : 31.250 FPS (1536 SPF)
Compression mode : Lossy
Delay relative to video : -43 ms
Stream size : 81.6 MiB (9%)
Title : Cikava Ideya
Language : Ukrainian
Service kind : Complete Main
Default : No
Forced : No

Audio #3
ID : 4
Format : AC-3
Format/Info : Audio Coding 3
Commercial name : Dolby Digital
Codec ID : A_AC3
Duration : 59 min 26 s
Bit rate mode : Constant
Bit rate : 384 kb/s
Channel(s) : 6 channels
Channel layout : L R C LFE Ls Rs
Sampling rate : 48.0 kHz
Frame rate : 31.250 FPS (1536 SPF)
Compression mode : Lossy
Delay relative to video : -43 ms
Stream size : 163 MiB (18%)
Title : Dzuski
Language : Ukrainian
Service kind : Complete Main
Default : No
Forced : No

Audio #4
ID : 5
Format : AAC LC
Format/Info : Advanced Audio Codec Low Complexity
Codec ID : A_AAC-2
Duration : 59 min 25 s
Bit rate : 256 kb/s
Channel(s) : 2 channels
Channel layout : L R
Sampling rate : 48.0 kHz
Frame rate : 46.875 FPS (1024 SPF)
Compression mode : Lossy
Delay relative to video : -43 ms
Stream size : 109 MiB (12%)
Language : English
Default : No
Forced : No

Text #1
ID : 6
Format : UTF-8
Codec ID : S_TEXT/UTF8
Codec ID/Info : UTF-8 Plain Text
Duration : 53 min 14 s
Bit rate : 7 b/s
Count of elements : 66
Stream size : 3.11 KiB (0%)
Title : Forced
Language : Ukrainian
Default : Yes
Forced : Yes

Text #2
ID : 7
Format : UTF-8
Codec ID : S_TEXT/UTF8
Codec ID/Info : UTF-8 Plain Text
Duration : 7 min 0 s
Bit rate : 8 b/s
Count of elements : 6
Stream size : 457 Bytes (0%)
Title : Forced 2
Language : Ukrainian
Default : No
Forced : No

Text #3
ID : 8
Format : UTF-8
Codec ID : S_TEXT/UTF8
Codec ID/Info : UTF-8 Plain Text
Duration : 56 min 34 s
Bit rate : 86 b/s
Count of elements : 779
Stream size : 35.7 KiB (0%)
Title : Full
Language : Ukrainian
Default : No
Forced : No

Text #4
ID : 9
Format : UTF-8
Codec ID : S_TEXT/UTF8
Codec ID/Info : UTF-8 Plain Text
Duration : 58 min 17 s
Bit rate : 63 b/s
Count of elements : 989
Stream size : 27.2 KiB (0%)
Title : SDH
Language : English
Default : No
Forced : No

Menu
00:00:00.000 : en:Amazon Original
00:00:05.000 : en:Ratings
00:00:15.000 : en:Butcher thinks back
00:01:41.000 : en:Title Sequence
00:01:44.000 : en:Writing what he can remember
00:02:46.000 : en:No explanations
00:04:48.000 : en:Full of potential
00:06:56.000 : en:A work in progress
00:08:44.000 : en:Girl power
00:10:27.000 : en:In memory of Raynor
00:13:03.000 : en:Accepting yourself
00:15:01.000 : en:Visiting a friend
00:16:47.000 : en:A full day of interviews
00:19:01.000 : en:A tense after party
00:20:55.000 : en:A new helper
00:22:20.000 : en:The road to acceptance
00:25:17.000 : en:Testing loyalties
00:27:48.000 : en:Becca is distressed
00:30:20.000 : en:Maeve opens up
00:32:30.000 : en:Father son bonding
00:36:53.000 : en:Hunting a terrorist
00:41:08.000 : en:Drop the mask
00:43:18.000 : en:Butcher tells the truth
00:46:43.000 : en:Reunited
00:48:55.000 : en:A-Train confronts Starlight
00:52:06.000 : en:Relationships change
00:57:25.000 : en:End Credits
Внимание! Раздача ведётся путём добавления новых серий; при каждом добавлении создаётся новый торрент. Чтобы начать докачку новой серии, пользователям необходимо сделать следующее:
(1) остановить скачивание,
(2) удалить старый торрент у себя из клиента (старые серии удалять не надо),
(3) скачать новый торрент и запустить его у себя в клиенте вместо старого, при этом указать клиенту путь в старую папку куда и должно происходить скачивание новых серий.

Ваш клиент при этом должен произвести хеширование (проверку) старой папки (если не производит сам - помогите ему сделать это), и будет докачивать только те серии которых у вас ещё нет. Старые серии при этом не удаляются, а продолжают раздаваться!

Eсли вы уже удалили старые серии, то предотвратить повторную закачку старых серий можно, отжав галочку в соответствующих местах при запуске нового торрента. По возможности, желательно не удалять старые серии как можно дольше чтобы релизёр не столько продолжал раздавать старые серии, а смог сконцентрироваться на новых.
piratbit.org



Скачать Пацаны через торрент https://i112.fastpic.ru/big/2020/0917/2d/500c4a33bd094b37afe45efe6dcaa92d.jpg Скачать фильм Пацаны через торрент бесплантно в хорошем качестве Описание: Действие сериала разворачивается в мире, где существуют супергерои. Именно они являются настоящими звездами. Их все знают и ... 7 10 9
Торрент: Зарегистрирован [2020-10-10 08:05] · скачан: 15 раз
Статус: √ проверено
Размер: 7.93 GB
Как cкачать? Как скачать Пацаны через торрент | UTorrent

% Раздел Тема Автор DL S | L
Зарубежные сериалы [ 8.31 GB ] Пацаны / The Boys / Сезон: 2 / Серии: 1-8 из 8 [2020 WEBRip] MVO [TVShows] bober100 Скачать
1 | 0
Зарубежные сериалы [ 30.15 GB ] Пацаны / The Boys / Сезон: 2 / Серии: 1-8 из 8 [2020 WEB-DL 1080p] DVO [Кубик в Кубе] bober100 Скачать
2 | 0
Зарубежные сериалы [ 7.95 GB ] Пацаны / The Boys / Сезон: 2 / Серии 1-8 из 8 [2020 WEB-DLRip-AVC] MVO [LostFilm] GEKADOL Скачать
4 | 0
Зарубежные сериалы [ 13.54 GB ] Пацаны / The Boys / Сезон: 2 / Серии: 1-8 из 8 [2020 WEB-DLRip-AVC] [DVO] killermax2013 Скачать
3 | 0
Зарубежные сериалы [ 9.22 GB ] Пацаны / The Boys / Сезон: 2 / Серии: 1-8 из 8 [2020 WEB-DLRip] DVO [Кубик в Кубе] GEKADOL Скачать
3 | 0
Зарубежные сериалы [ 39.3 GB ] Пацаны / The Boys / Сезон: 2 / Серии: 1-8 из 8 [2020 WEBRip 1080p] 4xMVO+DVO [Кубик в Кубе] bober100 Скачать
3 | 0
Фильмы без перевода [ 28.61 GB ] Пацаны / The Boys / Сезон: 2 / Серии: 1-8 из 8 [2020 WEB-DL 1080p] [Multi Sub] killermax2013 Скачать
1 | 0


Последний раз редактировалось: killermax2013 (2020-10-10 08:06), всего редактировалось 2 раз(а)

28-11-2019 20:33  

Отключить всю рекламу на сайте

    Дорогой пользователь! Огромная просьба, поблагодарите релизера, оцените раздачу и оставьте свои комментарий, если Вы скачали Пацаны через торрент бесплатно! Внесите свою лепту в развитие PiratBit!
    Комментировать посты могут только пользователи прошедшие не сложную регистрацию
    Показать сообщения:    

    Пацаны через торрент
    Скачать бесплатно Пацаны
    Пацаны скачать торрент
    Пацаны смотреть онлайн
    Cкачать фильм Пацаны бесплатно
    Пацаны скачать торрент в хорошем качестве
    Пацаны смотреть онлайн бесплатно в хорошем качестве


    Вы не можете начинать темы
    Вы не можете отвечать на сообщения
    Вы не можете редактировать свои сообщения
    Вы не можете удалять свои сообщения
    Вы не можете голосовать в опросах
    Вы не можете прикреплять файлы к сообщениям
    Вы можете скачивать файлы